<?xml version="1.0" standalone="no"?>
<!DOCTYPE svg PUBLIC "-//W3C//DTD SVG 1.1//EN" "http://www.w3.org/Graphics/SVG/1.1/DTD/svg11.dtd" >
<svg xmlns="http://www.w3.org/2000/svg">
<metadata></metadata>
<defs>
<font id="ubuntumedium_italic" horiz-adv-x="1163" >
<font-face units-per-em="2048" ascent="1638" descent="-410" />
<missing-glyph horiz-adv-x="485" />
<glyph unicode="&#xfb01;" horiz-adv-x="1366" d="M-41 -354q39 49 73 99t61.5 106.5t51 123t41.5 148.5l244 1024q25 104 67 187t104.5 139.5t149.5 86t201 29.5q72 0 129.5 -13t92.5 -30l-93 -194q-18 6 -53 16t-90 10q-61 0 -104 -17.5t-74 -48t-50.5 -74.5t-31.5 -95l-19 -72h359l-49 -205h-359l-153 -641 q-27 -111 -50.5 -196.5t-54 -157.5t-72.5 -134.5t-106 -123.5zM961 0l256 1071h247l-258 -1071h-245zM1253 1364q0 76 52.5 125t119.5 49q55 0 97.5 -34t42.5 -99q0 -76 -53 -124t-121 -48q-55 0 -96.5 32.5t-41.5 98.5z" />
<glyph unicode="&#xfb02;" horiz-adv-x="1404" d="M-41 -354q39 49 73 99t61.5 106.5t51 123t41.5 148.5l244 1024q25 104 67 187t104.5 139.5t149.5 86t201 29.5q72 0 129.5 -13t92.5 -30l-93 -194q-18 6 -53 16t-90 10q-61 0 -104 -17.5t-74 -48t-50.5 -74.5t-31.5 -95l-19 -72h359l-49 -205h-359l-153 -641 q-27 -111 -50.5 -196.5t-54 -157.5t-72.5 -134.5t-106 -123.5zM1010 274q0 66 15 138.5t34 144.5l237 991l258 41q-63 -268 -126.5 -533t-129.5 -534q-10 -43 -20 -85t-14 -83q-4 -35 -1 -64.5t18 -51t46 -36t80 -18.5l-53 -204q-96 2 -163 24.5t-107 61t-57 92t-17 116.5z " />
<glyph unicode="&#xd;" horiz-adv-x="485" />
<glyph horiz-adv-x="0" />
<glyph horiz-adv-x="0" />
<glyph unicode=" "  horiz-adv-x="485" />
<glyph unicode="&#x09;" horiz-adv-x="485" />
<glyph unicode="&#xa0;" horiz-adv-x="485" />
<glyph unicode="!" horiz-adv-x="561" d="M152 117q0 86 53 134t121 48q66 0 106.5 -37t40.5 -108q0 -41 -15.5 -75t-40 -57.5t-56 -36t-64.5 -12.5q-66 0 -105.5 36t-39.5 108zM297 446q16 143 36.5 285.5t61.5 310.5l90 377h263l-91 -377q-16 -68 -37.5 -144.5t-46 -156t-51 -155.5t-51.5 -140h-174z" />
<glyph unicode="&#x22;" horiz-adv-x="931" d="M389 989q2 47 8.5 103.5t13.5 115t17 115.5t23 109l30 124h248l-30 -126q-25 -98 -65 -214t-87 -227h-158zM786 989q2 47 8.5 103.5t13.5 115t17 115.5t23 109l30 124h248l-30 -126q-25 -98 -65 -214t-87 -227h-158z" />
<glyph unicode="#" horiz-adv-x="1343" d="M180 360l47 195h193l131 309h-250l47 193h285l153 362h218l-154 -362h274l154 362h217l-154 -362h158l-47 -193h-190l-134 -309h250l-47 -195h-282l-154 -360h-217l151 360h-272l-154 -360h-217l152 360h-158zM637 555h274l133 309h-274z" />
<glyph unicode="$" d="M168 137l106 187q20 -14 52 -31t72 -31t87.5 -23.5t98.5 -9.5t102 8.5t92 29t66.5 57t25.5 96.5q0 74 -58 118t-146 85q-123 59 -199 144t-76 216q0 70 24.5 134.5t76 114.5t127 84t178.5 46l55 227h213l-57 -227q84 -12 150.5 -40t107.5 -54l-105 -178q-45 33 -115.5 54 t-156.5 21q-51 0 -97.5 -10t-80 -29.5t-54 -51.5t-20.5 -75q0 -37 10 -62.5t34 -48t59.5 -44t86.5 -47.5q57 -29 110.5 -60.5t93.5 -73.5t63.5 -96.5t23.5 -128.5q0 -92 -30.5 -163.5t-87 -122t-135.5 -81t-175 -40.5l-61 -254h-211l61 258q-53 6 -101 17t-89 26.5t-72 31 t-49 27.5z" />
<glyph unicode="%" horiz-adv-x="1796" d="M317 967q0 100 31 189t86 153.5t129 102.5t160 38q129 0 207 -71.5t78 -217.5q0 -102 -31 -190t-86 -153.5t-130 -103.5t-161 -38q-129 0 -206 72.5t-77 218.5zM369 0l1132 1419h246l-1135 -1419h-243zM506 977q0 -61 26.5 -98t83.5 -37q45 0 83 25.5t65 68.5t41 98.5 t14 114.5q0 63 -25.5 100t-82.5 37q-47 0 -84 -26.5t-64.5 -69.5t-42 -99.5t-14.5 -113.5zM1108 258q0 100 30.5 189.5t86 154t129 102t159.5 37.5q129 0 207 -71.5t78 -216.5q0 -102 -30.5 -190.5t-86 -154t-130 -103.5t-160.5 -38q-129 0 -206 73t-77 218zM1296 268 q0 -61 27 -98t84 -37q45 0 83 25.5t64.5 68.5t41 98.5t14.5 114.5q0 63 -25.5 100.5t-83.5 37.5q-47 0 -84 -27t-64.5 -70t-42 -99t-14.5 -114z" />
<glyph unicode="&#x26;" horiz-adv-x="1335" d="M154 322q0 86 26.5 154.5t75.5 123.5t119.5 101.5t159.5 89.5q-39 61 -60.5 126.5t-21.5 137.5q0 88 31.5 160.5t90 125t141.5 82t185 29.5q147 0 234.5 -78t87.5 -203q0 -117 -75 -219t-212 -172q-23 -12 -46.5 -23.5t-45.5 -21.5l205 -280q37 53 68.5 114.5t56.5 132.5 l217 -26q-37 -100 -91.5 -199.5t-125.5 -187.5q53 -74 96 -146.5t71 -142.5h-251q-14 31 -34 64.5t-42 68.5q-96 -72 -209 -111.5t-248 -39.5q-80 0 -153.5 19t-129 60t-88 105.5t-32.5 155.5zM397 356q0 -76 44.5 -127t142.5 -51q76 0 157.5 26.5t157.5 88.5l-260 352 q-104 -43 -173 -115.5t-69 -173.5zM678 1057q0 -41 17.5 -86t45.5 -94q55 25 103.5 52t84.5 59t56.5 71t20.5 88q0 53 -33 87t-99 34q-39 0 -73.5 -13.5t-62 -39t-44 -65.5t-16.5 -93z" />
<glyph unicode="'" horiz-adv-x="530" d="M397 989q2 47 8.5 103.5t13.5 115t17 115.5t23 109l30 124h248l-30 -126q-25 -98 -65 -214t-87 -227h-158z" />
<glyph unicode="(" horiz-adv-x="675" d="M252 264q0 188 43 370.5t124 352.5t196.5 325.5t261.5 291.5l161 -115q-123 -127 -223 -269.5t-172 -296t-110.5 -315.5t-38.5 -327q0 -150 24.5 -284t79.5 -263l-184 -109q-80 139 -121 302t-41 337z" />
<glyph unicode=")" horiz-adv-x="675" d="M-109 -264q123 127 223.5 269t172 296t110.5 315.5t39 327.5q0 150 -24.5 284t-79.5 263l184 108q80 -139 121 -301.5t41 -336.5q0 -188 -43 -370.5t-124 -353.5t-196.5 -326t-261.5 -290z" />
<glyph unicode="*" horiz-adv-x="964" d="M287 1030l69 213l19 -6q68 -23 143.5 -67t136.5 -85q-20 70 -38.5 149t-18.5 150v35h225v-35q0 -72 -18.5 -150.5t-38.5 -148.5q59 39 130 82t138 66l31 10l70 -213l-33 -10q-70 -23 -152 -29t-153 -8q66 -47 127 -104.5t106 -114.5l14 -19l-184 -129l-18 27 q-41 59 -74 135t-57 142q-14 -33 -29.5 -72t-33 -77t-37 -75t-40.5 -63l-12 -17l-182 129l20 29q43 59 105.5 111.5t120.5 97.5q-72 2 -149 7t-155 30z" />
<glyph unicode="+" d="M219 481l51 209h357l96 402h227l-96 -402h356l-51 -209h-356l-96 -401h-226l94 401h-356z" />
<glyph unicode="," horiz-adv-x="548" d="M0 -274q80 125 133 268t64 278h260q-12 -164 -92 -318.5t-189 -283.5z" />
<glyph unicode="-" horiz-adv-x="653" d="M170 471l53 227h545l-53 -227h-545z" />
<glyph unicode="." horiz-adv-x="542" d="M133 117q0 86 53 134t121 48q66 0 107 -37t41 -108q0 -41 -15.5 -75t-40 -57.5t-56.5 -36t-64 -12.5q-66 0 -106 36t-40 108z" />
<glyph unicode="/" horiz-adv-x="817" d="M-141 -379l1145 1983h249l-1144 -1983h-250z" />
<glyph unicode="0" d="M217 393q0 193 46 382.5t134 340t217 243.5t293 93q94 0 161 -31.5t110 -88t63.5 -134.5t20.5 -170q0 -193 -46.5 -382t-135.5 -339.5t-217 -244t-294 -93.5q-94 0 -160.5 32t-109.5 88t-62.5 134t-19.5 170zM455 426q0 -129 34.5 -185.5t114.5 -56.5q66 0 122 39 t103.5 103.5t83 148.5t60 174t38 179.5t13.5 166.5q0 129 -35 186.5t-115 57.5q-66 0 -123 -39t-103 -104.5t-82 -149.5t-61.5 -174t-37.5 -180t-12 -166z" />
<glyph unicode="1" d="M436 1124q129 47 266.5 121t251.5 174h176l-342 -1419h-247l260 1079q-66 -43 -155 -83t-175 -68z" />
<glyph unicode="2" d="M143 0q18 119 61.5 210t106 166t140 139.5t163.5 129.5q86 66 156 120t119 105.5t75.5 102.5t26.5 110q0 68 -43 111t-123 43q-100 0 -183 -43t-148 -96l-84 186q90 76 206.5 122t249.5 46q90 0 161 -27.5t119 -72.5t72.5 -105.5t24.5 -124.5q0 -92 -25.5 -164.5 t-74.5 -135t-121 -123t-162 -130.5q-53 -41 -110.5 -83t-109.5 -86t-97 -92t-76 -101h612l-49 -207h-887z" />
<glyph unicode="3" d="M129 59l90 203q45 -29 125 -57.5t188 -28.5q70 0 132.5 16.5t108.5 50t72.5 85t26.5 123.5q0 102 -78.5 151t-213.5 49h-82l47 199h102q57 0 114.5 13.5t102.5 41t74 71.5t29 107q0 78 -51.5 118t-139.5 40q-76 0 -150.5 -25.5t-140.5 -62.5l-61 188q78 47 180.5 79 t212.5 32q102 0 177 -27.5t124 -73.5t74 -106.5t25 -126.5q0 -121 -75 -217t-210 -147q78 -35 133 -115t55 -193q0 -96 -36.5 -182t-110.5 -151.5t-186.5 -104.5t-266.5 -39q-129 0 -230.5 29t-160.5 61z" />
<glyph unicode="4" d="M156 340l41 176q61 94 154 212t205 241t234.5 240.5t241.5 209.5h242l-211 -878h158l-50 -201h-157l-82 -340h-238l80 340h-618zM446 541h381l140 579q-63 -55 -132 -123.5t-137.5 -144.5t-133 -155t-118.5 -156z" />
<glyph unicode="5" d="M141 57l92 205q51 -29 127 -54.5t170 -25.5q160 0 255.5 68.5t95.5 202.5q0 72 -39 118.5t-106.5 74.5t-161 40t-201.5 14q66 190 124 366.5t105 352.5h711l-49 -207h-500q-12 -39 -26.5 -85t-29 -91t-27.5 -86t-24 -69q238 -27 354.5 -133.5t116.5 -274.5 q0 -111 -36.5 -203t-111.5 -158.5t-187.5 -104.5t-264.5 -38q-55 0 -111.5 8.5t-108.5 20.5t-95 27.5t-72 31.5z" />
<glyph unicode="6" d="M236 424q0 197 67.5 379t196.5 321.5t319.5 222.5t440.5 83h24t31 -3l-31 -200q-274 -4 -457.5 -104.5t-267.5 -299.5q55 27 127 44.5t143 17.5q170 0 264.5 -97.5t94.5 -263.5q0 -117 -37 -218t-107.5 -176t-171 -118t-225.5 -43q-92 0 -168 31t-130 89t-83.5 142 t-29.5 193zM475 430q0 -113 46 -184.5t151 -71.5q63 0 115.5 26.5t87 71.5t54 104.5t19.5 127.5q0 98 -50 142t-142 44q-127 0 -246 -53q-16 -53 -25.5 -106.5t-9.5 -100.5z" />
<glyph unicode="7" d="M291 0q43 158 124 330t181 334.5t209.5 304t210.5 237.5h-645l51 213h942l-45 -192q-55 -47 -124 -122t-143.5 -169t-149.5 -204.5t-141.5 -230.5t-122.5 -247t-91 -254h-256z" />
<glyph unicode="8" d="M195 305q0 135 79.5 243.5t239.5 199.5q-57 47 -89 109.5t-32 143.5q0 86 32 167t95.5 144.5t155.5 101.5t215 38q90 0 160.5 -25.5t119 -70.5t74 -104.5t25.5 -127.5q0 -117 -65.5 -222t-227.5 -185q72 -49 120 -118t48 -181q0 -90 -35 -172t-103.5 -143.5t-170 -97.5 t-236.5 -36q-90 0 -164 23.5t-128 66.5t-83.5 105.5t-29.5 140.5zM434 340q0 -78 47 -124t146 -46q55 0 105 17.5t88 48t60.5 74t22.5 96.5q0 90 -62.5 145t-162.5 98q-121 -53 -182.5 -137t-61.5 -172zM627 1020q0 -76 46 -126t132 -87q111 53 170 123.5t59 161.5 q0 66 -40 112.5t-134 46.5q-51 0 -94 -17t-73.5 -49t-48 -74t-17.5 -91z" />
<glyph unicode="9" d="M168 -4l35 199q29 -2 63.5 -1t50.5 3q242 23 389.5 121t225.5 284q-59 -31 -133 -46t-140 -15q-170 0 -264 97t-94 261q0 117 38 218.5t107.5 176t168 116.5t221.5 42q190 0 303.5 -119t113.5 -336q0 -201 -65.5 -382t-193.5 -319t-318.5 -220t-439.5 -82h-30t-38 2z M541 920q0 -98 51 -141.5t143 -43.5q123 0 246 53q16 51 24.5 105.5t8.5 107.5q0 104 -47 175t-150 71q-66 0 -117 -26.5t-85.5 -70.5t-54 -103t-19.5 -127z" />
<glyph unicode=":" horiz-adv-x="522" d="M133 117q0 86 53 134t121 48q66 0 107 -37t41 -108q0 -41 -15.5 -75t-40 -57.5t-56.5 -36t-64 -12.5q-66 0 -106 36t-40 108zM307 889q0 86 53 134t121 48q66 0 107 -37t41 -108q0 -41 -15.5 -75t-40 -57.5t-56.5 -36t-64 -12.5q-66 0 -106 36t-40 108z" />
<glyph unicode=";" horiz-adv-x="522" d="M0 -274q80 125 133 268t64 278h260q-12 -164 -92 -318.5t-189 -283.5zM309 889q0 86 53 134t121 48q66 0 107 -37t41 -108q0 -41 -15.5 -75t-40 -57.5t-56.5 -36t-64 -12.5q-66 0 -106 36t-40 108z" />
<glyph unicode="&#x3c;" d="M217 489l47 201l965 373l16 -211l-745 -272l610 -283l-109 -188z" />
<glyph unicode="=" d="M172 260l49 209h942l-51 -209h-940zM279 702l49 209h942l-51 -209h-940z" />
<glyph unicode="&#x3e;" d="M166 319l745 273l-610 282l109 189l784 -381l-47 -201l-965 -372z" />
<glyph unicode="?" horiz-adv-x="835" d="M236 117q0 86 53 134t121 48q66 0 106.5 -37t40.5 -108q0 -41 -15.5 -75t-40 -57.5t-56 -36t-64.5 -12.5q-66 0 -105.5 36t-39.5 108zM330 446q2 70 21.5 124.5t53 99.5t81 87t102.5 87q39 31 78 61.5t70.5 64.5t51 71.5t19.5 82.5q0 61 -41 91t-113 30 q-86 0 -159.5 -24.5t-118.5 -49.5l-31 195q66 37 160 61.5t192 24.5q170 0 264.5 -80t94.5 -215q0 -94 -37 -163.5t-93.5 -126t-121 -102.5t-120.5 -94t-95 -101.5t-41 -123.5h-217z" />
<glyph unicode="@" horiz-adv-x="1929" d="M221 354q0 236 80 438.5t222.5 351t337 232.5t421.5 84q154 0 283 -41t223 -124t147.5 -205.5t53.5 -288.5q0 -78 -12.5 -162t-39 -165t-70.5 -154.5t-105.5 -128t-144.5 -87t-190 -32.5q-123 0 -180 75q-59 -35 -125.5 -53t-140.5 -18q-158 0 -249 97t-91 271 q0 109 40 217.5t119 194.5t193.5 140.5t261.5 54.5q113 0 193 -19.5t129 -40.5l-147 -614q-4 -12 -6.5 -24.5t-2.5 -22.5q0 -63 74 -64q70 0 123 44t90 117t56.5 165t19.5 190q0 242 -135.5 371t-393.5 129q-164 0 -313 -66.5t-264 -187.5t-182.5 -289t-67.5 -372 q0 -141 43 -238.5t118 -158t177 -88t221 -27.5q96 0 180 13t131 23l-12 -176q-61 -16 -154.5 -28.5t-181.5 -12.5q-164 0 -298 46.5t-230 133.5t-148.5 213t-52.5 287zM868 465q0 -201 162 -201q84 0 166 41q0 25 4 48.5t10 47.5l109 451q-35 10 -102 10q-86 0 -151 -34.5 t-109 -91t-66.5 -128t-22.5 -143.5z" />
<glyph unicode="A" horiz-adv-x="1343" d="M14 0q125 217 239 409.5t221.5 366.5t213 333t211.5 310h240q66 -305 112.5 -666.5t89.5 -752.5h-260q-6 86 -13 171t-15 165h-576q-47 -80 -93 -163t-93 -173h-277zM588 541h444q-12 145 -29 297.5t-40 310.5q-78 -121 -173.5 -271.5t-201.5 -336.5z" />
<glyph unicode="B" horiz-adv-x="1298" d="M166 23l330 1374q92 20 194.5 28.5t206.5 8.5q86 0 175 -12.5t161 -48.5t118 -98.5t46 -160.5q0 -109 -60.5 -205t-203.5 -155q90 -37 139 -106.5t49 -162.5q0 -240 -187.5 -370.5t-541.5 -130.5q-104 0 -220 9t-206 30zM465 205q29 -4 76 -7t104 -3q68 0 141.5 10 t133 38.5t99.5 82t40 137.5q0 78 -59.5 128t-196.5 50h-234zM618 840h197q63 0 122.5 12t103.5 40t71 68.5t27 100.5q0 94 -71 129t-189 35q-47 0 -94.5 -3t-75.5 -8z" />
<glyph unicode="C" horiz-adv-x="1241" d="M248 547q0 172 57 334.5t166 289.5t264.5 204t351.5 77q129 0 224.5 -28.5t167.5 -69.5l-99 -207q-66 39 -140.5 60.5t-168.5 21.5q-129 0 -231.5 -57.5t-175 -150.5t-110.5 -212t-38 -242q0 -190 83 -281t243 -91q123 0 209 27.5t147 56.5l31 -218q-68 -35 -172.5 -63.5 t-253.5 -28.5q-131 0 -233.5 40t-174 116t-109.5 182.5t-38 239.5z" />
<glyph unicode="D" horiz-adv-x="1437" d="M166 23l330 1374q100 23 202.5 30t188.5 7q156 0 274.5 -40t198.5 -113t121 -176.5t41 -230.5q0 -190 -61.5 -354t-182.5 -282.5t-302 -186t-421 -67.5q-86 0 -192.5 9t-196.5 30zM469 211q23 -4 52.5 -5t92.5 -1q147 0 266 47t202 134t128 209t45 271q0 162 -92 256.5 t-301 94.5q-53 0 -85 -2.5t-68 -6.5z" />
<glyph unicode="E" horiz-adv-x="1171" d="M160 0l340 1419h880l-51 -215h-624l-84 -356h553l-52 -211h-551l-102 -422h672l-51 -215h-930z" />
<glyph unicode="F" horiz-adv-x="1105" d="M160 0l340 1419h874l-51 -215h-618l-89 -368h547l-51 -213h-545l-149 -623h-258z" />
<glyph unicode="G" horiz-adv-x="1341" d="M248 547q0 172 57 334.5t167 289.5t268.5 204t359.5 77q143 0 244.5 -35t162.5 -76l-100 -204q-53 35 -135 63.5t-187 28.5q-135 0 -240.5 -57.5t-179 -150.5t-111.5 -212t-38 -242q0 -374 328 -374q59 0 106 6t74 14l121 508h256l-164 -680q-53 -25 -167 -47.5 t-267 -22.5q-135 0 -239.5 40t-174.5 115t-105.5 181.5t-35.5 239.5z" />
<glyph unicode="H" horiz-adv-x="1425" d="M160 0l340 1419h258l-137 -569h581l137 569h258l-340 -1419h-258l152 631h-582l-151 -631h-258z" />
<glyph unicode="I" horiz-adv-x="585" d="M160 0l340 1419h258l-340 -1419h-258z" />
<glyph unicode="J" horiz-adv-x="1013" d="M43 96l119 195q41 -35 102.5 -66.5t153.5 -31.5q63 0 110 15t81 50t58.5 90t43.5 135l223 936h260l-233 -977q-25 -102 -61 -189t-97.5 -149.5t-154.5 -98.5t-234 -36q-125 0 -221.5 40t-149.5 87z" />
<glyph unicode="K" horiz-adv-x="1298" d="M160 0l340 1419h258l-137 -567q84 68 174 143.5t176 151.5t162.5 145.5t136.5 126.5h313q-84 -78 -179 -164t-194.5 -175t-201 -176t-199.5 -165q63 -66 131 -149.5t131.5 -180t120.5 -201t104 -208.5h-284q-41 82 -91.5 171t-106.5 174t-118.5 161t-124.5 133l-153 -639 h-258z" />
<glyph unicode="L" horiz-adv-x="1097" d="M160 0l340 1419h258l-289 -1202h629l-51 -217h-887z" />
<glyph unicode="M" horiz-adv-x="1765" d="M125 0q49 176 104.5 364.5t113.5 374t115.5 359.5t110.5 321h242q18 -72 42 -185.5t47.5 -242.5t47 -260t41.5 -237q70 109 155 237.5t170 255.5t163.5 240.5t136.5 191.5h244q-16 -156 -39 -332t-52.5 -360t-62.5 -369.5t-66 -357.5h-256q53 248 102.5 509t90.5 517 q-35 -49 -80 -118.5t-96 -146.5t-104.5 -159t-103.5 -158.5t-93 -142t-74 -113.5h-199q-10 68 -28.5 178.5t-41 232.5t-44 237.5t-37.5 191.5q-84 -256 -157 -519t-138 -509h-254z" />
<glyph unicode="N" horiz-adv-x="1472" d="M160 0l340 1419h207q57 -92 119.5 -210.5t122 -249t114.5 -261.5t96 -247l227 968h256l-339 -1419h-207q-39 119 -89.5 256t-106.5 274.5t-116.5 267.5t-121.5 238l-248 -1036h-254z" />
<glyph unicode="O" horiz-adv-x="1519" d="M248 539q0 164 53 327.5t156.5 293.5t255 211t348.5 81q119 0 219 -38t172 -109.5t112 -178t40 -243.5q0 -164 -53.5 -328t-156 -294t-254.5 -211t-349 -81q-119 0 -218.5 38t-172 109.5t-112.5 178t-40 244.5zM516 561q0 -168 71.5 -268t229.5 -100q117 0 213 58 t164 152.5t105.5 214t37.5 242.5q0 168 -72.5 268.5t-230.5 100.5q-117 0 -212 -58.5t-162.5 -152.5t-105.5 -214t-38 -243z" />
<glyph unicode="P" horiz-adv-x="1239" d="M160 0l334 1399q98 20 196 27.5t184 7.5q256 0 392.5 -100.5t136.5 -286.5q0 -147 -56.5 -251t-155.5 -169.5t-237.5 -95t-304.5 -29.5h-110l-121 -502h-258zM590 719h104q86 0 166 14.5t141.5 48t98.5 92t37 148.5q0 104 -77 149.5t-210 45.5q-39 0 -74 -2.5t-69 -6.5z " />
<glyph unicode="Q" horiz-adv-x="1519" d="M248 539q0 164 53 327.5t156.5 293.5t255 211t348.5 81q119 0 219 -38t172 -109.5t112 -178t40 -243.5q0 -150 -44 -298.5t-129 -273.5t-212 -214t-293 -115q-2 -6 -2 -17q0 -43 30.5 -70.5t83 -45t120 -26.5t140.5 -16l-81 -190q-119 8 -217.5 30.5t-169 62.5 t-109.5 101.5t-39 147.5v6t2 15q-98 14 -179 58t-137.5 114.5t-88 168t-31.5 218.5zM516 561q0 -168 71.5 -268t229.5 -100q117 0 213 58t164 152.5t105.5 214t37.5 242.5q0 168 -72.5 268.5t-230.5 100.5q-117 0 -212 -58.5t-162.5 -152.5t-105.5 -214t-38 -243z" />
<glyph unicode="R" horiz-adv-x="1277" d="M160 0l334 1399q98 20 199.5 27.5t185.5 7.5q254 0 386 -105.5t132 -279.5q0 -78 -21.5 -149t-67.5 -131t-119 -107.5t-175 -77.5q27 -47 57.5 -114t63 -143.5t63.5 -160.5t55 -166h-272q-25 74 -51.5 149.5t-55 146.5t-58.5 133.5t-58 111.5q-18 -2 -45 -2h-47h-119 l-129 -539h-258zM596 745h115q92 0 169.5 15.5t134 48.5t88.5 85t32 126q0 113 -82 155t-219 42q-29 0 -62 -2.5t-65 -6.5z" />
<glyph unicode="S" horiz-adv-x="1079" d="M74 88l114 203q20 -14 54 -32.5t77 -34t94.5 -26t108.5 -10.5q55 0 109.5 10.5t98.5 35t70.5 66.5t26.5 106q0 47 -20.5 80.5t-55 60t-78.5 50.5t-93 50q-53 27 -101.5 60.5t-85.5 76.5t-58.5 100.5t-21.5 135.5q0 94 36 173t106.5 136t174 90t240.5 33q63 0 122 -10 t110 -25.5t90 -34t61 -34.5l-112 -197q-43 35 -120 59.5t-169 24.5q-55 0 -105.5 -11.5t-88 -35t-59 -61t-21.5 -89.5q0 -47 15 -77.5t43 -54t64.5 -43t79.5 -44.5q63 -35 119.5 -69.5t99.5 -79.5t69 -103.5t26 -140.5q0 -115 -43 -201t-121 -142t-184.5 -85t-233.5 -29 q-84 0 -154.5 12.5t-126 31t-95.5 39t-62 36.5z" />
<glyph unicode="T" horiz-adv-x="1191" d="M338 1202l51 217h1104l-53 -217h-422l-289 -1202h-258l289 1202h-422z" />
<glyph unicode="U" horiz-adv-x="1386" d="M264 387q0 47 7.5 104.5t21.5 110.5l194 817h261l-203 -846q-10 -39 -16.5 -80.5t-6.5 -80.5q0 -45 11.5 -85t38 -69t69.5 -46t107 -17q150 0 229.5 88t120.5 264l209 872h260l-215 -897q-31 -131 -78 -233.5t-122 -173t-182.5 -108.5t-258.5 -38q-119 0 -204 32 t-138.5 87t-79 132t-25.5 167z" />
<glyph unicode="V" horiz-adv-x="1308" d="M334 1419h272q23 -301 50.5 -587.5t62.5 -526.5q76 115 156.5 250t162.5 279.5t160 293t148 291.5h280q-193 -362 -400.5 -719.5t-449.5 -699.5h-246q-63 330 -112 684t-84 735z" />
<glyph unicode="W" horiz-adv-x="1900" d="M344 715q0 336 25 704h258q-12 -197 -20.5 -390t-8.5 -392v-148.5t4 -150.5q63 104 131 220t133.5 234.5t128 237.5t117.5 227h225q6 -111 15.5 -231.5t21.5 -240t24.5 -234.5t24.5 -213q57 109 119 239t123 269t120.5 285.5t115.5 287.5h274q-162 -395 -327 -747.5 t-349 -671.5h-250q-16 111 -31.5 217.5t-28.5 216t-24.5 223t-21.5 236.5q-127 -236 -251 -456t-263 -437h-254q-16 178 -23.5 354t-7.5 361z" />
<glyph unicode="X" horiz-adv-x="1288" d="M20 0l650 764l-289 655h285l192 -481q102 119 199.5 242t177.5 239h289q-59 -84 -127 -171t-139.5 -174t-144.5 -172t-142 -163q82 -188 153.5 -365t135.5 -374h-275q-25 80 -49.5 150.5t-50 136t-52 129t-57.5 131.5l-457 -547h-299z" />
<glyph unicode="Y" horiz-adv-x="1218" d="M330 1419h274q35 -158 80 -315t98 -311q127 154 247 308t224 318h291q-80 -113 -159.5 -219t-162.5 -211.5t-171 -210t-183 -213.5l-135 -565h-258l135 565q-84 215 -152.5 427t-127.5 427z" />
<glyph unicode="Z" horiz-adv-x="1181" d="M66 0l38 162q57 76 130 165t154 183t168 189.5t173 185.5t167 171t151 146h-660l51 217h1002l-45 -190q-84 -74 -206 -192.5t-255 -257t-264 -285t-236 -277.5h735l-51 -217h-1052z" />
<glyph unicode="[" horiz-adv-x="696" d="M92 -379l475 1983h504l-47 -197h-268l-383 -1589h270l-49 -197h-502z" />
<glyph unicode="\" horiz-adv-x="804" d="M324 1604h231l217 -1983h-235z" />
<glyph unicode="]" horiz-adv-x="696" d="M-90 -379l47 197h268l383 1589h-270l49 197h502l-475 -1983h-504z" />
<glyph unicode="^" d="M242 733l561 686h203l231 -710l-211 -91l-172 541l-434 -534z" />
<glyph unicode="_" horiz-adv-x="1024" d="M-88 -379l47 207h1024l-49 -207h-1022z" />
<glyph unicode="`" horiz-adv-x="641" d="M307 1454l152 162l303 -322l-115 -114z" />
<glyph unicode="a" horiz-adv-x="1142" d="M195 387q0 150 53 279t148.5 223t226.5 148.5t286 54.5q80 0 161 -13.5t163 -50.5l-148 -612q-6 -23 -12 -74t-6 -96q0 -59 10 -115.5t33 -114.5l-221 -32q-25 49 -39 104q-51 -45 -126 -81t-169 -36q-96 0 -164.5 32t-111.5 88t-63.5 132t-20.5 164zM440 408 q0 -47 8.5 -88t28 -72t52 -49.5t83.5 -18.5q66 0 116 28t93 75q2 53 9.5 100t19.5 94l100 402q-39 8 -88 8q-92 0 -170 -40t-134 -106.5t-87 -152.5t-31 -180z" />
<glyph unicode="b" horiz-adv-x="1165" d="M160 45l358 1503l258 41l-131 -549q45 23 96.5 39.5t108.5 16.5q94 0 162.5 -32t113.5 -87t68 -130t23 -161q0 -141 -49.5 -270t-140.5 -227.5t-222 -157t-295 -58.5q-25 0 -66 2t-90 10.5t-100 23t-94 36.5zM442 193q18 -4 42 -7.5t59 -3.5q94 0 173 40t135 107.5 t87 154.5t31 182q0 47 -8.5 87t-29 69.5t-55 47t-88.5 17.5q-45 0 -98 -16.5t-98 -51.5z" />
<glyph unicode="c" horiz-adv-x="940" d="M199 406q0 139 44 265t126 221t200.5 150.5t270.5 55.5q80 0 146.5 -13.5t125.5 -40.5l-88 -198q-37 16 -82 28.5t-111 12.5q-88 0 -158.5 -36t-119.5 -97.5t-75.5 -145.5t-26.5 -178q0 -53 11 -97t36.5 -78t70.5 -52.5t113 -18.5q70 0 134.5 18.5t98.5 37.5l21 -203 q-47 -23 -125 -44.5t-176 -21.5q-113 0 -195 34t-136 92.5t-79.5 137.5t-25.5 171z" />
<glyph unicode="d" horiz-adv-x="1171" d="M195 385q0 137 48 265t137 225.5t218 156t293 58.5q20 0 49 -2.5t64 -10.5l112 471l258 41l-280 -1161q-10 -47 -15.5 -95t-5.5 -91q0 -55 10.5 -110.5t32.5 -115.5l-221 -32q-23 43 -39 104q-51 -45 -125 -81t-172 -36q-96 0 -165.5 32t-113.5 87t-64.5 131t-20.5 164z M440 408q0 -47 9.5 -88t30 -72t54 -49.5t82.5 -18.5q66 0 116 26.5t95 74.5q2 43 9.5 90t17.5 92l100 414q-39 8 -94 8q-94 0 -172 -40t-133 -106.5t-85 -152.5t-30 -178z" />
<glyph unicode="e" horiz-adv-x="1071" d="M199 387q0 137 44 265t127 227.5t199.5 159t261.5 59.5q156 0 242 -80t86 -205q0 -129 -63.5 -209t-165 -125t-229.5 -61.5t-259 -20.5q-2 -4 -2 -8v-20q0 -186 236 -187q139 0 278 58l21 -201q-49 -23 -139.5 -45.5t-204.5 -22.5q-115 0 -197 33t-134 90.5t-76.5 132 t-24.5 160.5zM459 575q246 8 357.5 59.5t111.5 153.5q0 41 -29.5 74t-103.5 33q-61 0 -116.5 -24.5t-98.5 -67.5t-75 -101.5t-46 -126.5z" />
<glyph unicode="f" horiz-adv-x="794" d="M-41 -354q39 49 73 99t61.5 106.5t51 123t41.5 148.5l244 1024q25 104 67 187t104.5 139.5t149.5 86t201 29.5q82 0 148.5 -17.5t101.5 -33.5l-90 -195q-27 12 -71 23.5t-103 11.5q-61 0 -104 -17.5t-74 -48t-50.5 -74.5t-31.5 -95l-19 -72h359l-49 -205h-359l-153 -641 q-27 -111 -50.5 -196.5t-54 -157.5t-72.5 -134.5t-106 -123.5z" />
<glyph unicode="g" horiz-adv-x="1165" d="M68 -303l88 201q55 -33 128 -53.5t167 -20.5q152 0 228.5 69.5t102.5 190.5l6 29q-41 -20 -98 -38t-121 -18q-180 0 -267 97.5t-87 259.5q0 147 51 272t144.5 216t224.5 142.5t291 51.5q78 0 167 -17.5t160 -56.5l-217 -909q-29 -121 -72.5 -214.5t-115.5 -155.5 t-177.5 -95t-254.5 -33q-109 0 -196 23.5t-152 58.5zM461 451q0 -90 39 -141.5t131 -51.5q55 0 113.5 20.5t97.5 51.5l131 547q-47 10 -92 10q-94 0 -171 -35t-132.5 -94.5t-86 -138t-30.5 -168.5z" />
<glyph unicode="h" horiz-adv-x="1153" d="M150 0l370 1548l258 41l-127 -526q41 10 89 19.5t96 9.5q90 0 154.5 -26t106.5 -71t61.5 -108.5t19.5 -136.5q0 -88 -25 -187l-135 -563h-248l129 537q10 47 20.5 96t10.5 92q0 68 -36 114t-136 46q-41 0 -82 -7.5t-74 -17.5l-205 -860h-247z" />
<glyph unicode="i" horiz-adv-x="555" d="M150 0l256 1071h247l-258 -1071h-245zM442 1364q0 76 52.5 125t119.5 49q55 0 97.5 -34t42.5 -99q0 -76 -53 -124t-121 -48q-55 0 -96.5 32.5t-41.5 98.5z" />
<glyph unicode="j" horiz-adv-x="565" d="M-209 -344l62 199q25 -10 56.5 -18.5t67.5 -8.5q84 0 127 58.5t66 156.5l246 1028h248l-248 -1032q-27 -111 -63 -190.5t-88 -131t-122.5 -76t-169.5 -24.5q-47 0 -97 11.5t-85 27.5zM455 1364q0 76 52 125t120 49q55 0 97 -34t42 -99q0 -76 -53 -124t-121 -48 q-55 0 -96 32.5t-41 98.5z" />
<glyph unicode="k" horiz-adv-x="1144" d="M150 0l370 1548l258 41l-223 -925q63 49 129 103t124 108.5t109.5 104.5t88.5 91h284q-49 -57 -112.5 -120.5t-133 -127t-143.5 -125t-143 -116.5q51 -53 102 -125t98.5 -150t86 -157.5t63.5 -149.5h-274q-29 68 -64 137.5t-76 136t-86 125t-90 103.5l-123 -502h-245z " />
<glyph unicode="l" horiz-adv-x="610" d="M215 274q0 66 15.5 138.5t33.5 144.5l238 991l258 41q-63 -268 -127 -533t-129 -534q-10 -43 -22.5 -85t-12.5 -83q0 -35 1 -64.5t16.5 -51t46 -36t79.5 -18.5l-53 -204q-96 2 -162.5 24.5t-106.5 61t-57.5 92t-17.5 116.5z" />
<glyph unicode="m" horiz-adv-x="1724" d="M150 0l245 1026q82 25 184.5 46.5t225.5 21.5q92 0 154.5 -27t105.5 -76q59 35 144 69t194 34q94 0 159.5 -27t106.5 -74t59.5 -111.5t18.5 -140.5q0 -84 -23 -178l-135 -563h-248l127 537q10 39 19.5 85t9.5 93q0 33 -7 64.5t-25.5 54t-50.5 37t-81 14.5 q-53 0 -104 -20.5t-86 -43.5q8 -39 8 -84q0 -41 -6 -86t-17 -88l-135 -563h-248l127 537q10 37 19.5 85t9.5 95q0 68 -31.5 118t-119.5 50q-41 0 -78 -5.5t-68 -13.5l-207 -866h-247z" />
<glyph unicode="n" horiz-adv-x="1153" d="M150 0l245 1026q82 25 187.5 46.5t230.5 21.5q188 0 276.5 -92.5t88.5 -247.5q0 -43 -7.5 -91.5t-17.5 -99.5l-135 -563h-248l127 537q10 45 20.5 92t12.5 90v8q0 67 -34 111q-36 47 -140 47q-88 0 -152 -19l-207 -866h-247z" />
<glyph unicode="o" horiz-adv-x="1153" d="M199 381q0 119 36.5 246t112.5 231.5t190.5 172t270.5 67.5q190 0 290.5 -112t100.5 -296q0 -121 -36 -248t-110.5 -231.5t-190 -172t-273.5 -67.5q-190 0 -290.5 113t-100.5 297zM444 403q0 -102 39 -161.5t138 -59.5q80 0 142 46t104 117t64.5 157t22.5 164 q0 102 -39 162.5t-137 60.5q-80 0 -142.5 -46t-104.5 -118t-64.5 -157t-22.5 -165z" />
<glyph unicode="p" horiz-adv-x="1155" d="M59 -379l338 1407q84 31 187.5 49.5t208.5 18.5q106 0 185 -32t129 -87t74.5 -130t24.5 -161q0 -145 -46 -273t-135 -224.5t-217 -152.5t-294 -56q-29 0 -58.5 3t-58.5 7l-90 -369h-248zM444 193q20 -4 43 -5.5t45 -1.5q98 0 177 38t134.5 102.5t85 151.5t29.5 186 q0 45 -10 84.5t-33.5 70.5t-63.5 49.5t-101 18.5q-41 0 -78 -5t-66 -14z" />
<glyph unicode="q" horiz-adv-x="1157" d="M195 387q0 147 50 276.5t143 224.5t227.5 150.5t299.5 55.5q76 0 162 -16.5t168 -53.5l-336 -1403h-247l96 404q-47 -23 -100.5 -36.5t-108.5 -13.5q-170 0 -262 112t-92 300zM440 408q0 -102 40 -163t136 -61q49 0 98.5 14.5t96.5 49.5l152 629q-18 4 -43 7t-48 3 q-100 0 -180 -39t-136 -104.5t-86 -152.5t-30 -183z" />
<glyph unicode="r" horiz-adv-x="817" d="M150 0l245 1022q86 29 186.5 50.5t217.5 21.5q25 0 55.5 -3.5t60 -7.5t55 -10t44.5 -14l-72 -207q-41 14 -88 22.5t-111 8.5q-35 0 -73.5 -5.5t-65.5 -13.5l-207 -864h-247z" />
<glyph unicode="s" horiz-adv-x="897" d="M92 57l88 195q14 -8 42 -21.5t64 -25.5t80 -21.5t93 -9.5q98 0 155.5 32t57.5 97q0 53 -37 85t-129 75q-49 23 -91 47.5t-73 57t-49.5 76.5t-18.5 106q0 160 117 254t338 94q102 0 183 -21.5t122 -44.5l-88 -192q-35 20 -100.5 39.5t-136.5 19.5q-35 0 -69 -6 t-60.5 -20.5t-44 -40t-17.5 -62.5q0 -47 38 -76.5t110 -62.5q68 -31 114.5 -59.5t77.5 -64.5t45.5 -80t14.5 -105q0 -76 -31 -140.5t-89.5 -110.5t-144.5 -73t-196 -27q-76 0 -136.5 10.5t-105.5 23.5t-75.5 27.5t-47.5 24.5z" />
<glyph unicode="t" horiz-adv-x="821" d="M209 260q0 49 7 101.5t22 111.5l208 881l259 41l-78 -324h350l-49 -205h-350l-103 -424q-10 -45 -14 -74.5t-4 -54.5t5 -48t20.5 -40.5t45 -29t80.5 -11.5q55 0 106.5 14.5t90.5 30.5l18 -198q-47 -20 -118.5 -39t-167.5 -19q-176 0 -252 77t-76 210z" />
<glyph unicode="u" horiz-adv-x="1161" d="M219 313q0 90 25 195l135 563h248l-133 -557q-27 -106 -27 -174q0 -33 6 -61.5t21.5 -50t43 -34t68.5 -12.5q68 0 121 28t98 75q6 88 29 180l143 606h248l-151 -637q-10 -47 -15.5 -94t-5.5 -94q0 -59 9.5 -116.5t31.5 -113.5l-221 -32q-12 23 -21.5 50t-17.5 56 q-51 -41 -127 -79t-176 -38q-90 0 -153.5 27t-103.5 73t-57.5 108.5t-17.5 131.5z" />
<glyph unicode="v" horiz-adv-x="1046" d="M254 1071h254q2 -90 7 -194.5t13.5 -210t19.5 -203.5t25 -178q53 70 115 167t119 204.5t104 216t76 198.5h258q-49 -141 -122.5 -290.5t-159.5 -291t-177.5 -268.5t-173.5 -221h-213q-51 209 -92 484.5t-53 586.5z" />
<glyph unicode="w" horiz-adv-x="1660" d="M291 1071h246q0 -86 2 -185.5t7 -202.5t12 -203.5t20 -188.5q57 88 113.5 187.5t107.5 200.5t95 201.5t77 190.5h213q0 -84 2 -178t7 -194.5t12 -204t20 -203.5q53 78 108.5 178t106.5 205.5t93 209t69 187.5h258q-43 -123 -105.5 -261t-140.5 -279.5t-167 -277.5 t-185 -253h-205q-23 172 -38.5 339t-19.5 339q-39 -88 -88 -181.5t-102 -182.5t-106.5 -170t-98.5 -144h-205q-18 94 -35.5 215t-32 258t-25.5 288.5t-15 309.5z" />
<glyph unicode="x" horiz-adv-x="1021" d="M18 0l490 549l-264 522h260l170 -360q78 94 145.5 184t122.5 176h256q-86 -127 -190.5 -259t-227.5 -267q74 -141 135.5 -275.5t108.5 -269.5h-250q-33 96 -75 192.5t-85 182.5l-325 -375h-271z" />
<glyph unicode="y" horiz-adv-x="1011" d="M-115 -336l80 199q29 -16 65 -26.5t79 -10.5q96 0 168.5 50t132.5 136q-66 227 -111 493.5t-59 565.5h249q2 -86 9.5 -190.5t18.5 -214t27.5 -216t37.5 -196.5q61 98 114.5 206.5t98.5 216t78.5 209t58.5 185.5h262q-41 -117 -90 -243t-109.5 -252.5t-130 -252.5 t-149.5 -245q-59 -90 -123 -173t-138.5 -146.5t-164.5 -102.5t-205 -39q-63 0 -113.5 14.5t-85.5 32.5z" />
<glyph unicode="z" horiz-adv-x="958" d="M61 0l37 150q61 82 146.5 180t177.5 195.5t183 186.5t163 154h-475l49 205h799l-41 -170q-35 -31 -87 -79t-113.5 -107.5t-129.5 -126t-133.5 -134t-124.5 -132t-104 -117.5h534l-49 -205h-832z" />
<glyph unicode="{" horiz-adv-x="729" d="M203 514l47 195q61 0 104 19.5t73 51t47.5 72.5t27.5 84l67 276q25 102 62 176t97 122.5t148.5 71t215.5 22.5h14l-49 -197q-61 0 -104.5 -8t-72 -28.5t-47 -56.5t-32.5 -93l-78 -328q-27 -109 -77 -175.5t-148 -105.5q55 -35 76.5 -81t21.5 -103q0 -31 -5 -63.5 t-13 -67.5l-70 -295q-12 -53 -12 -86q0 -61 41 -79.5t137 -18.5l-49 -197q-88 0 -156 11.5t-114 39t-70.5 74.5t-24.5 119q0 39 10 86l74 299q16 76 16 127q0 72 -39.5 102.5t-117.5 34.5z" />
<glyph unicode="|" horiz-adv-x="608" d="M92 -379l477 1983h232l-477 -1983h-232z" />
<glyph unicode="}" horiz-adv-x="729" d="M-92 -379l49 197q61 0 103 8t72 28.5t48.5 56.5t32.5 93l78 328q27 109 77 175t148 105q-55 35 -76.5 81t-21.5 104q0 31 5 63.5t13 67.5l70 295q12 51 12 86q0 61 -41 79.5t-137 18.5l49 197q88 0 155.5 -11.5t114 -39t71 -74.5t24.5 -119q0 -39 -11 -86l-73 -299 q-16 -76 -17 -127q0 -72 40 -102.5t118 -34.5l-47 -195q-61 0 -104.5 -19.5t-73 -51t-47 -72.5t-27.5 -84l-68 -277q-25 -102 -61.5 -177t-97 -122t-148.5 -69.5t-215 -22.5h-14z" />
<glyph unicode="~" d="M195 471q18 57 48.5 115.5t76 104.5t103.5 75t132 29q70 0 119 -26t90 -56.5t79 -56t87 -25.5q53 0 88 40t72 115l161 -49q-23 -61 -53.5 -118.5t-73.5 -103.5t-101 -73.5t-132 -27.5q-70 0 -119 25.5t-90 56t-79 56.5t-87 26q-53 0 -88 -40t-72 -116z" />
<glyph unicode="&#xa1;" horiz-adv-x="544" d="M53 -369l90 377q16 68 38 144.5t46.5 156.5t51 156t51.5 139h174q-16 -143 -37 -285.5t-61 -310.5l-91 -377h-262zM319 893q0 86 54.5 134t122.5 48q66 0 105.5 -37t39.5 -108q0 -41 -15.5 -75t-40 -57.5t-56 -35.5t-64.5 -12q-66 0 -106 35.5t-40 107.5z" />
<glyph unicode="&#xa2;" d="M315 469q0 121 36 229.5t100.5 194.5t155.5 146.5t204 84.5l70 295h229l-70 -286q47 -6 91.5 -19.5t87.5 -36.5l-86 -194q-82 47 -193 47q-84 0 -152.5 -35t-117.5 -96.5t-76 -144.5t-27 -177q0 -102 51.5 -155.5t157.5 -53.5q70 0 138.5 19.5t109.5 40.5l18 -201 q-47 -23 -114.5 -42t-143.5 -24l-67 -284h-230l74 305q-117 37 -181.5 132t-64.5 255z" />
<glyph unicode="&#xa3;" d="M240 0q66 156 119 303.5t81 280.5h-184l47 200h184l48 185q35 137 87 229t121.5 147.5t153.5 78t180 22.5q92 0 168 -21.5t125 -50.5l-104 -188q-47 23 -97.5 36t-105.5 13q-51 0 -96 -13.5t-82 -47t-67 -91t-50 -145.5l-37 -154h375l-49 -200h-373l-16 -60 q-20 -78 -48 -159.5t-57 -155.5h576l-52 -209h-847z" />
<glyph unicode="&#xa5;" d="M176 221l41 170h315l41 176h-313l41 170h260q-68 174 -126 350.5t-95 331.5h254q31 -145 73 -290.5t97 -292.5q115 135 223.5 282.5t206.5 300.5h272q-119 -174 -252 -346t-274 -336h242l-41 -170h-316l-41 -176h316l-41 -170h-316l-53 -221h-252l54 221h-316z" />
<glyph unicode="&#xa7;" horiz-adv-x="1007" d="M59 -143l88 182q51 -29 120 -48.5t149 -19.5q125 0 185.5 43t60.5 105q0 82 -82 121q-82 41 -148.5 71.5t-114 66.5t-73 84t-25.5 124q0 104 69.5 198.5t180.5 153.5q-29 33 -45 77t-16 91q0 74 31.5 137.5t91 109.5t145.5 72.5t194 26.5q96 0 177 -20.5t143 -53.5 l-88 -182q-49 25 -108.5 42t-131.5 17q-37 0 -74.5 -7t-68.5 -23.5t-50.5 -43t-19.5 -67.5q0 -29 14.5 -49.5t37 -36.5t50 -28.5t54.5 -24.5q63 -27 114.5 -54.5t86 -63.5t53 -81t18.5 -106q0 -94 -55 -178t-141 -144q-12 -10 -25.5 -17t-28.5 -16q31 -35 51.5 -78.5 t20.5 -103.5q0 -72 -30.5 -136.5t-91 -113.5t-151.5 -78.5t-214 -29.5q-102 0 -194.5 21.5t-158.5 60.5zM442 621q0 -41 18.5 -67t51.5 -47.5t79 -42t99 -50.5q66 37 114 93t48 126q0 41 -18.5 68.5t-52 49t-79 42t-98.5 49.5q-61 -35 -111.5 -93t-50.5 -128z" />
<glyph unicode="&#xa8;" horiz-adv-x="937" d="M379 1366q0 35 13.5 64.5t33.5 50t47 32t53 11.5q53 0 89 -34t36 -91q0 -33 -13 -60.5t-34.5 -48t-48 -32t-53.5 -11.5q-53 0 -88 33t-35 86zM801 1366q0 35 13 64.5t33.5 50t47.5 32t53 11.5q53 0 89 -34t36 -91q0 -33 -13 -60.5t-34.5 -48t-48 -32t-53.5 -11.5 q-53 0 -88 33t-35 86z" />
<glyph unicode="&#xa9;" horiz-adv-x="1667" d="M285 711q0 174 57 312t154.5 233.5t225.5 145.5t269 50t269.5 -50t225.5 -145.5t154.5 -233.5t57.5 -312t-57.5 -312.5t-154.5 -233.5t-225 -145.5t-270 -50.5q-141 0 -269 50.5t-225.5 145.5t-154.5 233.5t-57 312.5zM463 711q0 -129 39 -235.5t109.5 -182.5t166.5 -117 t213 -41t213 41t166 117t109 182.5t39 235.5t-39 234.5t-109 181t-166 116.5t-213 41t-213 -41t-166.5 -116.5t-109.5 -181t-39 -234.5zM635 713q0 94 29.5 169.5t81 127t121 79t149.5 27.5q104 0 167.5 -27.5t82.5 -39.5l-56 -152q-27 16 -71.5 31.5t-110.5 15.5 q-86 0 -141.5 -58.5t-55.5 -168.5q0 -49 11.5 -92t36 -76t62.5 -51.5t91 -18.5q72 0 119 15.5t76 29.5l47 -155q-23 -14 -91.5 -38t-162.5 -24q-180 0 -282.5 105.5t-102.5 300.5z" />
<glyph unicode="&#xab;" horiz-adv-x="1126" d="M190 594l433 459l155 -92l-321 -398l151 -377l-166 -77zM679 594l433 459l155 -92l-321 -398l151 -377l-166 -77z" />
<glyph unicode="&#xad;" horiz-adv-x="653" d="M170 471l53 227h545l-53 -227h-545z" />
<glyph unicode="&#xae;" horiz-adv-x="1667" d="M285 711q0 174 58 312t155.5 233.5t225.5 145.5t267 50q141 0 269.5 -50t225.5 -145.5t154.5 -233.5t57.5 -312q0 -176 -57.5 -313.5t-154.5 -232.5t-225 -145.5t-270 -50.5q-139 0 -267 50.5t-225.5 145.5t-155.5 232.5t-58 313.5zM465 711q0 -129 39 -235.5 t108.5 -182.5t165.5 -117t213 -41t213 41t167 117t110 182.5t39 235.5t-39 234.5t-110 181t-167 116.5t-213 41t-213 -41t-165.5 -116.5t-108.5 -181t-39 -234.5zM713 332v747q63 16 124.5 22.5t108.5 6.5q170 0 257 -63.5t87 -192.5q0 -70 -33.5 -122t-97.5 -81 q41 -59 88 -137t92 -180h-184q-41 86 -82 156.5t-78 117.5h-110v-274h-172zM885 745h57q80 0 127 21.5t47 87.5q0 57 -44 80.5t-111 23.5h-36t-40 -4v-209z" />
<glyph unicode="&#xb0;" horiz-adv-x="735" d="M322 1292q0 70 24.5 126.5t67.5 95t98.5 59t116.5 20.5t117.5 -20.5t99.5 -59t67.5 -95t24.5 -126.5t-24.5 -126t-67.5 -95t-99.5 -59.5t-117.5 -20.5t-116.5 20.5t-98.5 59.5t-67.5 95.5t-24.5 125.5zM498 1292q0 -63 39 -99t92 -36t92 36t39 99t-39 100.5t-92 37.5 t-92 -37t-39 -101z" />
<glyph unicode="&#xb4;" horiz-adv-x="681" d="M289 1317l354 305l133 -168l-387 -260z" />
<glyph unicode="&#xb6;" horiz-adv-x="1380" d="M307 881q0 143 65.5 247.5t177.5 172t260 100.5t316 33q92 0 189.5 -8.5t189.5 -26.5l-426 -1778h-225l387 1608q-14 4 -47 7t-68 3h-36.5t-38.5 -2l-389 -1616h-226l219 911q-176 16 -262 106.5t-86 242.5z" />
<glyph unicode="&#xb7;" horiz-adv-x="542" d="M250 584q0 86 53 134t121 48q66 0 107 -37t41 -108q0 -41 -15.5 -75t-40 -57.5t-56.5 -36t-64 -12.5q-66 0 -106 36t-40 108z" />
<glyph unicode="&#xb8;" horiz-adv-x="722" d="M61 -381l62 139q23 -10 52.5 -17t64.5 -7q37 0 58 12t21 37t-15 38t-50 29l-27 13q12 20 29.5 47t36 52.5t35 47t22.5 31.5h162q-16 -23 -45 -61.5t-45 -63.5q86 -43 86 -131q0 -53 -20.5 -91t-56.5 -63.5t-83 -38t-100 -12.5q-113 0 -187 39z" />
<glyph unicode="&#xbb;" horiz-adv-x="1126" d="M137 201l322 397l-152 377l166 78l252 -486l-432 -458zM626 201l322 397l-152 377l166 78l252 -486l-432 -458z" />
<glyph unicode="&#xbf;" horiz-adv-x="847" d="M74 -104q0 70 19.5 126t53 102t78.5 86t94 79l70 55q63 51 118.5 113.5t57.5 138.5h219q-2 -68 -23.5 -123t-55 -101t-79 -86t-94.5 -79q-82 -63 -133 -117.5t-64 -87.5t-13 -63q0 -27 10 -53.5t44 -49t99 -22.5q86 0 160 24.5t119 48.5l30 -194q-66 -37 -160 -61.5 t-192 -24.5q-170 0 -264 78.5t-94 210.5zM555 889q0 86 53.5 134t120.5 48q66 0 107 -37t41 -108q0 -41 -15.5 -75t-40 -57.5t-56.5 -36t-65 -12.5q-66 0 -105.5 36t-39.5 108z" />
<glyph unicode="&#xc2;" horiz-adv-x="1343" d="M14 0q125 217 239 409.5t221.5 366.5t213 333t211.5 310h240q66 -305 112.5 -666.5t89.5 -752.5h-260q-6 86 -13 171t-15 165h-576q-47 -80 -93 -163t-93 -173h-277zM588 541h444q-12 145 -29 297.5t-40 310.5q-78 -121 -173.5 -271.5t-201.5 -336.5zM752 1626l362 310 l234 -326l-107 -96l-166 180l-241 -176z" />
<glyph unicode="&#xce;" horiz-adv-x="585" d="M160 0l340 1419h258l-340 -1419h-258zM377 1626l362 310l234 -326l-107 -96l-166 180l-241 -176z" />
<glyph unicode="&#xe2;" horiz-adv-x="1142" d="M195 387q0 150 53 279t148.5 223t226.5 148.5t286 54.5q80 0 161 -13.5t163 -50.5l-148 -612q-6 -23 -12 -74t-6 -96q0 -59 10 -115.5t33 -114.5l-221 -32q-25 49 -39 104q-51 -45 -126 -81t-169 -36q-96 0 -164.5 32t-111.5 88t-63.5 132t-20.5 164zM440 408 q0 -47 8.5 -88t28 -72t52 -49.5t83.5 -18.5q66 0 116 28t93 75q2 53 9.5 100t19.5 94l100 402q-39 8 -88 8q-92 0 -170 -40t-134 -106.5t-87 -152.5t-31 -180zM580 1296l362 310l234 -326l-107 -96l-166 180l-241 -176z" />
<glyph unicode="&#xee;" horiz-adv-x="555" d="M150 0l256 1071h247l-258 -1071h-245zM275 1296l362 310l234 -326l-107 -96l-166 180l-241 -176z" />
<glyph unicode="&#x102;" horiz-adv-x="1343" d="M14 0q125 217 239 409.5t221.5 366.5t213 333t211.5 310h240q66 -305 112.5 -666.5t89.5 -752.5h-260q-6 86 -13 171t-15 165h-576q-47 -80 -93 -163t-93 -173h-277zM588 541h444q-12 145 -29 297.5t-40 310.5q-78 -121 -173.5 -271.5t-201.5 -336.5zM799 1798q0 30 6 65 h164q-2 -8 -3 -15t-1 -17q0 -53 27.5 -84t83.5 -31q70 0 106.5 44t56.5 103h168q-12 -76 -43.5 -134t-78 -97t-105.5 -59.5t-123 -20.5q-117 0 -187.5 66.5t-70.5 179.5z" />
<glyph unicode="&#x103;" horiz-adv-x="1142" d="M195 387q0 150 53 279t148.5 223t226.5 148.5t286 54.5q80 0 161 -13.5t163 -50.5l-148 -612q-6 -23 -12 -74t-6 -96q0 -59 10 -115.5t33 -114.5l-221 -32q-25 49 -39 104q-51 -45 -126 -81t-169 -36q-96 0 -164.5 32t-111.5 88t-63.5 132t-20.5 164zM440 408 q0 -47 8.5 -88t28 -72t52 -49.5t83.5 -18.5q66 0 116 28t93 75q2 53 9.5 100t19.5 94l100 402q-39 8 -88 8q-92 0 -170 -40t-134 -106.5t-87 -152.5t-31 -180zM663 1483q0 30 6 65h164q-2 -8 -3 -15t-1 -17q0 -53 27.5 -84t83.5 -31q70 0 106.5 44t56.5 103h168 q-12 -76 -43.5 -134t-78 -97t-105.5 -59.5t-123 -20.5q-117 0 -187.5 66.5t-70.5 179.5z" />
<glyph unicode="&#x15e;" horiz-adv-x="1079" d="M74 88l114 203q20 -14 54 -32.5t77 -34t94.5 -26t108.5 -10.5q55 0 109.5 10.5t98.5 35t70.5 66.5t26.5 106q0 47 -20.5 80.5t-55 60t-78.5 50.5t-93 50q-53 27 -101.5 60.5t-85.5 76.5t-58.5 100.5t-21.5 135.5q0 94 36 173t106.5 136t174 90t240.5 33q63 0 122 -10 t110 -25.5t90 -34t61 -34.5l-112 -197q-43 35 -120 59.5t-169 24.5q-55 0 -105.5 -11.5t-88 -35t-59 -61t-21.5 -89.5q0 -47 15 -77.5t43 -54t64.5 -43t79.5 -44.5q63 -35 119.5 -69.5t99.5 -79.5t69 -103.5t26 -140.5q0 -109 -38 -190.5t-107.5 -138t-165 -88.5t-210.5 -38 q-10 -16 -21 -30.5t-17 -24.5q86 -43 86 -131q0 -53 -20.5 -91t-56.5 -63.5t-83 -38t-101 -12.5q-113 0 -186 39l62 139q23 -10 52 -17t64 -7q37 0 58.5 12t21.5 37t-15.5 38t-49.5 29l-27 13q12 23 33.5 52.5t42.5 57.5q-133 16 -218 51t-124 64z" />
<glyph unicode="&#x15f;" horiz-adv-x="897" d="M92 57l88 195q14 -8 42 -21.5t64 -25.5t80 -21.5t93 -9.5q98 0 155.5 32t57.5 97q0 53 -37 85t-129 75q-49 23 -91 47.5t-73 57t-49.5 76.5t-18.5 106q0 160 117 254t338 94q102 0 183 -21.5t122 -44.5l-88 -192q-35 20 -100.5 39.5t-136.5 19.5q-35 0 -69 -6 t-60.5 -20.5t-44 -40t-17.5 -62.5q0 -47 38 -76.5t110 -62.5q68 -31 114.5 -59.5t77.5 -64.5t45.5 -80t14.5 -105q0 -137 -95.5 -230.5t-275.5 -116.5q-27 -36 -41 -59q86 -43 86 -131q0 -53 -20.5 -91t-56.5 -63.5t-83 -38t-100 -12.5q-113 0 -187 39l62 139 q23 -10 52.5 -17t64.5 -7q37 0 58 12t21 37t-15 38t-50 29l-27 13q12 23 33 52.5t41 57.5q-119 10 -191.5 39t-101.5 45z" />
<glyph unicode="&#x162;" horiz-adv-x="1191" d="M279 -381l61 139q23 -10 52.5 -17t64.5 -7q37 0 58.5 12t21.5 37t-15.5 38t-50.5 29l-27 13q16 29 44 67.5t51 69.5h-68l289 1202h-422l51 217h1104l-53 -217h-422l-289 -1202h-31l-59 -84q86 -43 86 -131q0 -53 -20.5 -91t-56.5 -63.5t-83 -38t-100 -12.5 q-113 0 -186 39z" />
<glyph unicode="&#x163;" horiz-adv-x="821" d="M193 -381l61 139q23 -10 52.5 -17t64.5 -7q37 0 58.5 12t21.5 37t-15.5 38t-50.5 29l-27 13q14 25 37 57.5t43 61.5q-123 20 -176 92.5t-53 185.5q0 49 7 101.5t22 111.5l208 881l259 41l-78 -324h350l-49 -205h-350l-103 -424q-10 -45 -14 -74.5t-4 -54.5t5 -48 t20.5 -40.5t45 -29t80.5 -11.5q55 0 106.5 14.5t90.5 30.5l18 -198q-39 -16 -96 -32.5t-133 -23.5l-41 -59q86 -43 86 -131q0 -53 -20.5 -91t-56.5 -63.5t-83 -38t-100 -12.5q-113 0 -186 39z" />
<glyph unicode="&#x218;" horiz-adv-x="1079" d="M74 88l114 203q20 -14 54 -32.5t77 -34t94.5 -26t108.5 -10.5q55 0 109.5 10.5t98.5 35t70.5 66.5t26.5 106q0 47 -20.5 80.5t-55 60t-78.5 50.5t-93 50q-53 27 -101.5 60.5t-85.5 76.5t-58.5 100.5t-21.5 135.5q0 94 36 173t106.5 136t174 90t240.5 33q63 0 122 -10 t110 -25.5t90 -34t61 -34.5l-112 -197q-43 35 -120 59.5t-169 24.5q-55 0 -105.5 -11.5t-88 -35t-59 -61t-21.5 -89.5q0 -47 15 -77.5t43 -54t64.5 -43t79.5 -44.5q63 -35 119.5 -69.5t99.5 -79.5t69 -103.5t26 -140.5q0 -115 -43 -201t-121 -142t-184.5 -85t-233.5 -29 q-84 0 -154.5 12.5t-126 31t-95.5 39t-62 36.5zM207 -399l37 137q8 -2 15 -2h13q68 0 91.5 41t41.5 121h211q-20 -158 -98 -234t-211 -76q-25 0 -51.5 3t-48.5 10z" />
<glyph unicode="&#x219;" horiz-adv-x="897" d="M92 57l88 195q14 -8 42 -21.5t64 -25.5t80 -21.5t93 -9.5q98 0 155.5 32t57.5 97q0 53 -37 85t-129 75q-49 23 -91 47.5t-73 57t-49.5 76.5t-18.5 106q0 160 117 254t338 94q102 0 183 -21.5t122 -44.5l-88 -192q-35 20 -100.5 39.5t-136.5 19.5q-35 0 -69 -6 t-60.5 -20.5t-44 -40t-17.5 -62.5q0 -47 38 -76.5t110 -62.5q68 -31 114.5 -59.5t77.5 -64.5t45.5 -80t14.5 -105q0 -76 -31 -140.5t-89.5 -110.5t-144.5 -73t-196 -27q-76 0 -136.5 10.5t-105.5 23.5t-75.5 27.5t-47.5 24.5zM160 -399l37 137q8 -2 15 -2h13q68 0 91.5 41 t41.5 121h211q-20 -158 -98 -234t-211 -76q-25 0 -51.5 3t-48.5 10z" />
<glyph unicode="&#x21a;" horiz-adv-x="1191" d="M277 -399l37 137q8 -2 15 -2h13q68 0 91.5 41t41.5 121h211q-20 -158 -98 -234t-211 -76q-25 0 -51.5 3t-48.5 10zM338 1202l51 217h1104l-53 -217h-422l-289 -1202h-258l289 1202h-422z" />
<glyph unicode="&#x21b;" horiz-adv-x="821" d="M174 -399l37 137q8 -2 15 -2h13q68 0 91.5 41t41.5 121h211q-20 -158 -98 -234t-211 -76q-25 0 -51.5 3t-48.5 10zM209 260q0 49 7 101.5t22 111.5l208 881l259 41l-78 -324h350l-49 -205h-350l-103 -424q-10 -45 -14 -74.5t-4 -54.5t5 -48t20.5 -40.5t45 -29t80.5 -11.5 q55 0 106.5 14.5t90.5 30.5l18 -198q-47 -20 -118.5 -39t-167.5 -19q-176 0 -252 77t-76 210z" />
<glyph unicode="&#x2c6;" horiz-adv-x="796" d="M248 1296l362 310l234 -326l-107 -96l-166 180l-241 -176z" />
<glyph unicode="&#x2da;" horiz-adv-x="720" d="M279 1409q0 51 18 93t49 69.5t72 43t86 15.5t86 -15.5t72.5 -43t50 -69.5t18.5 -93q0 -53 -18.5 -94t-50 -69.5t-72.5 -44t-86 -15.5t-86 15.5t-72 44t-49 69.5t-18 94zM403 1409q0 -49 30 -76.5t71 -27.5t70.5 27.5t29.5 76.5t-29.5 76.5t-70.5 27.5t-71 -27.5 t-30 -76.5z" />
<glyph unicode="&#x2dc;" horiz-adv-x="770" d="M193 1315q43 96 104 147t154 51q41 0 72.5 -12t58 -26.5t51 -26.5t51.5 -12q35 0 61.5 24.5t55.5 67.5l117 -72q-45 -98 -107 -148.5t-154 -50.5q-37 0 -67.5 12.5t-58 26t-53 25.5t-52.5 12q-35 0 -61.5 -23.5t-55.5 -66.5z" />
<glyph unicode="&#x400;" horiz-adv-x="1171" d="M160 0l340 1419h880l-51 -215h-624l-84 -356h553l-52 -211h-551l-102 -422h672l-51 -215h-930zM708 1786l152 162l303 -322l-115 -114z" />
<glyph unicode="&#x401;" horiz-adv-x="1171" d="M160 0l340 1419h880l-51 -215h-624l-84 -356h553l-52 -211h-551l-102 -422h672l-51 -215h-930zM651 1690q0 35 13.5 64.5t33.5 50t47 32t53 11.5q53 0 89 -34t36 -91q0 -33 -13 -60.5t-34.5 -48t-48 -32t-53.5 -11.5q-53 0 -88 33t-35 86zM1073 1690q0 35 13 64.5 t33.5 50t47.5 32t53 11.5q53 0 89 -34t36 -91q0 -33 -13 -60.5t-34.5 -48t-48 -32t-53.5 -11.5q-53 0 -88 33t-35 86z" />
<glyph unicode="&#x402;" horiz-adv-x="1566" d="M332 1200l51 219h1106l-53 -219h-453l-80 -334q49 12 114.5 21.5t123.5 9.5q117 0 201.5 -29.5t141 -82t83 -123t26.5 -154.5q0 -117 -36.5 -212t-105.5 -164t-169 -105.5t-229 -36.5q-35 0 -70 4t-61 8l51 197q16 -4 39.5 -6.5t46.5 -2.5q70 0 122 24t85.5 62.5t51 90 t17.5 108.5q0 113 -69.5 160t-192.5 47q-51 0 -115.5 -8t-105.5 -21l-158 -653h-258l289 1200h-393z" />
<glyph unicode="&#x403;" horiz-adv-x="1042" d="M160 0l340 1419h843l-51 -219h-585l-289 -1200h-258zM819 1649l354 305l133 -168l-387 -260z" />
<glyph unicode="&#x404;" horiz-adv-x="1261" d="M248 555q0 168 54 330t161.5 287.5t264.5 202.5t364 77q135 0 235 -28.5t172 -69.5l-106 -209q-68 35 -151 58.5t-177 23.5q-90 0 -170 -29t-144.5 -80t-112.5 -124.5t-77 -162.5h586l-53 -217h-578q-6 -41 -6 -86q0 -72 21.5 -132t64.5 -104t106.5 -69.5t147.5 -25.5 q121 0 215 28.5t164 61.5l33 -217q-92 -41 -202 -71t-247 -30q-276 0 -420.5 155t-144.5 431z" />
<glyph unicode="&#x405;" horiz-adv-x="1079" d="M74 88l114 203q20 -14 54 -32.5t77 -34t94.5 -26t108.5 -10.5q55 0 109.5 10.5t98.5 35t70.5 66.5t26.5 106q0 47 -20.5 80.5t-55 60t-78.5 50.5t-93 50q-53 27 -101.5 60.5t-85.5 76.5t-58.5 100.5t-21.5 135.5q0 94 36 173t106.5 136t174 90t240.5 33q63 0 122 -10 t110 -25.5t90 -34t61 -34.5l-112 -197q-43 35 -120 59.5t-169 24.5q-55 0 -105.5 -11.5t-88 -35t-59 -61t-21.5 -89.5q0 -47 15 -77.5t43 -54t64.5 -43t79.5 -44.5q63 -35 119.5 -69.5t99.5 -79.5t69 -103.5t26 -140.5q0 -115 -43 -201t-121 -142t-184.5 -85t-233.5 -29 q-84 0 -154.5 12.5t-126 31t-95.5 39t-62 36.5z" />
<glyph unicode="&#x406;" horiz-adv-x="585" d="M160 0l340 1419h258l-340 -1419h-258z" />
<glyph unicode="&#x407;" horiz-adv-x="585" d="M160 0l340 1419h258l-340 -1419h-258zM350 1690q0 35 13.5 64.5t33.5 50t47 32t53 11.5q53 0 89 -34t36 -91q0 -33 -13 -60.5t-34.5 -48t-48 -32t-53.5 -11.5q-53 0 -88 33t-35 86zM772 1690q0 35 13 64.5t33.5 50t47.5 32t53 11.5q53 0 89 -34t36 -91q0 -33 -13 -60.5 t-34.5 -48t-48 -32t-53.5 -11.5q-53 0 -88 33t-35 86z" />
<glyph unicode="&#x408;" horiz-adv-x="1013" d="M43 96l119 195q41 -35 102.5 -66.5t153.5 -31.5q63 0 110 15t81 50t58.5 90t43.5 135l223 936h260l-233 -977q-25 -102 -61 -189t-97.5 -149.5t-154.5 -98.5t-234 -36q-125 0 -221.5 40t-149.5 87z" />
<glyph unicode="&#x409;" horiz-adv-x="2054" d="M39 201q141 14 239.5 101t172 240.5t130 374t115.5 502.5h858l-120 -510q35 2 68.5 2h62.5q272 0 393 -98t121 -285q0 -145 -57.5 -248.5t-156 -169t-228.5 -95t-275 -29.5q-96 0 -205.5 10t-191.5 31l280 1171h-348q-53 -236 -113.5 -440.5t-138.5 -366.5 q-37 -78 -88 -149.5t-120.5 -128t-162 -93t-211.5 -45.5zM1268 213q51 -10 143 -10q199 0 300 77.5t101 225.5q0 92 -69.5 141t-216.5 49h-73t-71 -4z" />
<glyph unicode="&#x40a;" horiz-adv-x="2095" d="M160 0l340 1419h258l-129 -538h579l131 538h256l-127 -530q35 2 72 3t66 1q270 0 392 -96.5t122 -276.5q0 -143 -57.5 -244.5t-156 -166t-228.5 -94t-275 -29.5q-96 0 -206 10t-191 31l151 637h-582l-157 -664h-258zM1309 213q51 -10 143 -10q199 0 300 77.5t101 217.5 q0 86 -71.5 133t-218.5 47q-51 0 -83 -1t-61 -5z" />
<glyph unicode="&#x40b;" horiz-adv-x="1529" d="M332 1200l51 219h1106l-53 -219h-453l-80 -332q43 12 107.5 21.5t124.5 9.5q186 0 288.5 -82t102.5 -239q0 -78 -21 -160l-102 -418h-258l102 422q16 66 17 106q0 78 -50.5 115t-164.5 37q-45 0 -103.5 -8t-93.5 -21l-158 -651h-258l289 1200h-393z" />
<glyph unicode="&#x40c;" horiz-adv-x="1298" d="M160 0l340 1419h258l-137 -567q84 68 174 143.5t176 151.5t162.5 145.5t136.5 126.5h313q-84 -78 -179 -164t-194.5 -175t-201 -176t-199.5 -165q63 -66 131 -149.5t131.5 -180t120.5 -201t104 -208.5h-284q-41 82 -91.5 171t-106.5 174t-118.5 161t-124.5 133l-153 -639 h-258zM895 1649l354 305l133 -168l-387 -260z" />
<glyph unicode="&#x40d;" horiz-adv-x="1464" d="M160 0l340 1419h256l-230 -950q92 109 206 237t232.5 256t236.5 246.5t220 210.5h215l-342 -1419h-254l244 1016q-111 -113 -230.5 -241t-237.5 -261t-228.5 -265t-204.5 -249h-223zM837 1786l152 162l303 -322l-115 -114z" />
<glyph unicode="&#x40e;" horiz-adv-x="1167" d="M63 23l82 206q31 -14 66 -23t84 -9t88 11t74 32.5t69.5 55.5t71.5 81q-47 131 -88 271t-76 276.5t-60.5 263.5t-39.5 231h276q20 -172 61.5 -376.5t100.5 -415.5q104 166 215 370.5t221 421.5h281q-162 -297 -309.5 -544.5t-292.5 -464.5q-61 -92 -123 -172 t-132.5 -138.5t-156.5 -91.5t-196 -33q-63 0 -120 13.5t-96 34.5zM637 1814l183 45q4 -72 34.5 -107.5t98.5 -35.5q121 0 184 145l166 -57q-47 -129 -144.5 -193.5t-234.5 -64.5q-123 0 -202 68.5t-85 199.5z" />
<glyph unicode="&#x40f;" horiz-adv-x="1411" d="M160 0l340 1419h260l-289 -1202h565l289 1202h258l-340 -1419h-418l-92 -379h-246l93 379h-420z" />
<glyph unicode="&#x410;" horiz-adv-x="1343" d="M14 0q125 217 239 409.5t221.5 366.5t213 333t211.5 310h240q66 -305 112.5 -666.5t89.5 -752.5h-260q-6 86 -13 171t-15 165h-576q-47 -80 -93 -163t-93 -173h-277zM588 541h444q-12 145 -29 297.5t-40 310.5q-78 -121 -173.5 -271.5t-201.5 -336.5z" />
<glyph unicode="&#x411;" horiz-adv-x="1261" d="M164 27l334 1392h876l-51 -219h-618l-72 -299h133q272 0 396 -94t124 -287q0 -145 -58.5 -246.5t-156.5 -165t-228 -93t-276 -29.5q-98 0 -208.5 10t-194.5 31zM467 213q47 -10 145 -10q201 0 303.5 78.5t102.5 226.5q0 100 -73 140t-228 40h-135z" />
<glyph unicode="&#x412;" horiz-adv-x="1298" d="M166 23l330 1374q92 20 194.5 28.5t206.5 8.5q86 0 175 -12.5t161 -48.5t118 -98.5t46 -160.5q0 -109 -60.5 -205t-203.5 -155q90 -37 139 -106.5t49 -162.5q0 -240 -187.5 -370.5t-541.5 -130.5q-104 0 -220 9t-206 30zM465 205q29 -4 76 -7t104 -3q68 0 141.5 10 t133 38.5t99.5 82t40 137.5q0 78 -59.5 128t-196.5 50h-234zM618 840h197q63 0 122.5 12t103.5 40t71 68.5t27 100.5q0 94 -71 129t-189 35q-47 0 -94.5 -3t-75.5 -8z" />
<glyph unicode="&#x413;" horiz-adv-x="1042" d="M160 0l340 1419h843l-51 -219h-585l-289 -1200h-258z" />
<glyph unicode="&#x414;" horiz-adv-x="1472" d="M-82 -379l143 596h166q115 106 196 242.5t139.5 293t100.5 325.5t78 341h856l-288 -1202h211l-144 -596h-246l93 379h-969l-90 -379h-246zM530 217h525l235 981h-352q-31 -133 -66.5 -267t-84 -260t-111 -242t-146.5 -212z" />
<glyph unicode="&#x415;" horiz-adv-x="1171" d="M160 0l340 1419h880l-51 -215h-624l-84 -356h553l-52 -211h-551l-102 -422h672l-51 -215h-930z" />
<glyph unicode="&#x416;" horiz-adv-x="1880" d="M12 0q78 104 166 209.5t181.5 205t191.5 189.5t194 164l-378 651h297l315 -602l143 602h252l-145 -602q168 156 322.5 305.5t297.5 296.5h314q-186 -186 -369.5 -358t-357.5 -332q123 -150 225 -340t172 -389h-285q-70 193 -161 356.5t-195 300.5l-160 -657h-250l158 659 q-176 -147 -330.5 -306.5t-308.5 -352.5h-289z" />
<glyph unicode="&#x417;" horiz-adv-x="1155" d="M72 80l118 205q63 -35 147.5 -63.5t194.5 -28.5q174 0 271.5 68.5t97.5 189.5q0 98 -75.5 141t-204.5 43h-191l53 213h162q61 0 122.5 13t112 42t82 75t31.5 112t-49 102.5t-149 36.5q-98 0 -185.5 -27.5t-154.5 -62.5l-35 213q74 41 186.5 69.5t237.5 28.5 q213 0 314.5 -92t101.5 -234q0 -135 -80 -230t-209 -140q102 -47 149 -121t47 -170q0 -102 -42 -192.5t-123.5 -157t-203.5 -105.5t-284 -39q-154 0 -265.5 36t-176.5 75z" />
<glyph unicode="&#x418;" horiz-adv-x="1464" d="M160 0l340 1419h256l-230 -950q92 109 206 237t232.5 256t236.5 246.5t220 210.5h215l-342 -1419h-254l244 1016q-111 -113 -230.5 -241t-237.5 -261t-228.5 -265t-204.5 -249h-223z" />
<glyph unicode="&#x419;" horiz-adv-x="1464" d="M160 0l340 1419h256l-230 -950q92 109 206 237t232.5 256t236.5 246.5t220 210.5h215l-342 -1419h-254l244 1016q-111 -113 -230.5 -241t-237.5 -261t-228.5 -265t-204.5 -249h-223zM817 1818l183 45q4 -72 34.5 -107.5t98.5 -35.5q121 0 184 145l166 -57 q-47 -129 -144.5 -193.5t-234.5 -64.5q-123 0 -202 68.5t-85 199.5z" />
<glyph unicode="&#x41a;" horiz-adv-x="1298" d="M160 0l340 1419h258l-137 -567q84 68 174 143.5t176 151.5t162.5 145.5t136.5 126.5h313q-84 -78 -179 -164t-194.5 -175t-201 -176t-199.5 -165q63 -66 131 -149.5t131.5 -180t120.5 -201t104 -208.5h-284q-41 82 -91.5 171t-106.5 174t-118.5 161t-124.5 133l-153 -639 h-258z" />
<glyph unicode="&#x41b;" horiz-adv-x="1384" d="M39 201q141 14 239.5 101t172 241.5t130 375t115.5 500.5h858l-337 -1419h-259l287 1198h-348q-59 -256 -123.5 -472t-152.5 -380q-37 -66 -87.5 -129t-117 -114.5t-153.5 -85t-200 -42.5z" />
<glyph unicode="&#x41c;" horiz-adv-x="1765" d="M125 0q49 176 104.5 364.5t113.5 374t115.5 359.5t110.5 321h242q18 -72 42 -185.5t47.5 -242.5t47 -260t41.5 -237q70 109 155 237.5t170 255.5t163.5 240.5t136.5 191.5h244q-16 -156 -39 -332t-52.5 -360t-62.5 -369.5t-66 -357.5h-256q53 248 102.5 509t90.5 517 q-35 -49 -80 -118.5t-96 -146.5t-104.5 -159t-103.5 -158.5t-93 -142t-74 -113.5h-199q-10 68 -28.5 178.5t-41 232.5t-44 237.5t-37.5 191.5q-84 -256 -157 -519t-138 -509h-254z" />
<glyph unicode="&#x41d;" horiz-adv-x="1425" d="M160 0l340 1419h258l-137 -569h581l137 569h258l-340 -1419h-258l152 631h-582l-151 -631h-258z" />
<glyph unicode="&#x41e;" horiz-adv-x="1519" d="M248 539q0 164 53 327.5t156.5 293.5t255 211t348.5 81q119 0 219 -38t172 -109.5t112 -178t40 -243.5q0 -164 -53.5 -328t-156 -294t-254.5 -211t-349 -81q-119 0 -218.5 38t-172 109.5t-112.5 178t-40 244.5zM516 561q0 -168 71.5 -268t229.5 -100q117 0 213 58 t164 152.5t105.5 214t37.5 242.5q0 168 -72.5 268.5t-230.5 100.5q-117 0 -212 -58.5t-162.5 -152.5t-105.5 -214t-38 -243z" />
<glyph unicode="&#x41f;" horiz-adv-x="1411" d="M160 0l340 1419h1083l-342 -1419h-258l289 1200h-565l-289 -1200h-258z" />
<glyph unicode="&#x420;" horiz-adv-x="1239" d="M160 0l334 1399q98 20 196 27.5t184 7.5q256 0 392.5 -100.5t136.5 -286.5q0 -147 -56.5 -251t-155.5 -169.5t-237.5 -95t-304.5 -29.5h-110l-121 -502h-258zM590 719h104q86 0 166 14.5t141.5 48t98.5 92t37 148.5q0 104 -77 149.5t-210 45.5q-39 0 -74 -2.5t-69 -6.5z " />
<glyph unicode="&#x421;" horiz-adv-x="1241" d="M248 547q0 172 57 334.5t166 289.5t264.5 204t351.5 77q129 0 224.5 -28.5t167.5 -69.5l-99 -207q-66 39 -140.5 60.5t-168.5 21.5q-129 0 -231.5 -57.5t-175 -150.5t-110.5 -212t-38 -242q0 -190 83 -281t243 -91q123 0 209 27.5t147 56.5l31 -218q-68 -35 -172.5 -63.5 t-253.5 -28.5q-131 0 -233.5 40t-174 116t-109.5 182.5t-38 239.5z" />
<glyph unicode="&#x422;" horiz-adv-x="1191" d="M338 1202l51 217h1104l-53 -217h-422l-289 -1202h-258l289 1202h-422z" />
<glyph unicode="&#x423;" horiz-adv-x="1167" d="M63 23l82 206q31 -14 66 -23t84 -9t88 11t74 32.5t69.5 55.5t71.5 81q-47 131 -88 271t-76 276.5t-60.5 263.5t-39.5 231h276q20 -172 61.5 -376.5t100.5 -415.5q104 166 215 370.5t221 421.5h281q-162 -297 -309.5 -544.5t-292.5 -464.5q-61 -92 -123 -172 t-132.5 -138.5t-156.5 -91.5t-196 -33q-63 0 -120 13.5t-96 34.5z" />
<glyph unicode="&#x424;" horiz-adv-x="1703" d="M248 662q0 139 59.5 262t165 216t248.5 147t313 59l39 165h252l-39 -165q117 -12 211 -51.5t158.5 -100.5t99.5 -141t35 -174q0 -147 -58.5 -274.5t-163 -222.5t-248.5 -150.5t-316 -57.5l-41 -174h-252l41 174q-238 27 -371 148.5t-133 339.5zM512 676q0 -141 78 -213 t213 -80l182 756q-104 -6 -190 -46t-149.5 -102.5t-98.5 -143.5t-35 -171zM1055 379q102 8 189 47t149.5 101.5t97.5 143.5t35 171q0 141 -77 214t-214 81z" />
<glyph unicode="&#x425;" horiz-adv-x="1288" d="M20 0l650 764l-289 655h285l192 -481q102 119 199.5 242t177.5 239h289q-59 -84 -127 -171t-139.5 -174t-144.5 -172t-142 -163q82 -188 153.5 -365t135.5 -374h-275q-25 80 -49.5 150.5t-50 136t-52 129t-57.5 131.5l-457 -547h-299z" />
<glyph unicode="&#x426;" horiz-adv-x="1458" d="M160 0l340 1419h258l-289 -1202h569l289 1202h258l-289 -1202h213l-143 -596h-246l92 379h-1052z" />
<glyph unicode="&#x427;" horiz-adv-x="1300" d="M328 825q0 37 5 87.5t19 107.5l99 399h258l-101 -413q-18 -78 -18 -134q0 -102 59.5 -142t167.5 -40q63 0 126 11.5t104 25.5l165 692h261l-343 -1419h-258l121 506q-47 -14 -113.5 -24.5t-119.5 -10.5q-211 0 -321.5 90t-110.5 264z" />
<glyph unicode="&#x428;" horiz-adv-x="1980" d="M160 0l340 1419h258l-289 -1202h438l289 1202h260l-289 -1202h439l288 1202h258l-340 -1419h-1652z" />
<glyph unicode="&#x429;" horiz-adv-x="2025" d="M160 0l340 1419h258l-289 -1202h438l289 1202h260l-289 -1202h439l288 1202h258l-288 -1202h213l-144 -596h-245l92 379h-1620z" />
<glyph unicode="&#x42a;" horiz-adv-x="1490" d="M332 1200l51 219h602l-119 -495q29 4 70 5t70 1q143 0 240 -30t157.5 -84t86.5 -128t26 -160q0 -121 -45.5 -220t-135.5 -172t-226 -112.5t-316 -39.5q-98 0 -209 11t-193 32l281 1173h-340zM694 211q23 -4 61 -6t87 -2q193 0 300 79.5t107 229.5q0 96 -66.5 149.5 t-215.5 53.5q-45 0 -86 -2t-68 -4z" />
<glyph unicode="&#x42b;" horiz-adv-x="1779" d="M164 27l334 1392h260l-119 -495q29 4 69 5t66 1q141 0 237.5 -30t156 -84t85 -128t25.5 -160q0 -119 -44 -218t-133 -171.5t-224.5 -113.5t-315.5 -41q-96 0 -205.5 11t-191.5 32zM467 211q23 -4 60.5 -6t84.5 -2q193 0 296.5 81t103.5 228q0 92 -66.5 147.5t-210.5 55.5 q-41 0 -82 -2t-67 -4zM1360 0l340 1419h252l-340 -1419h-252z" />
<glyph unicode="&#x42c;" horiz-adv-x="1265" d="M166 27l336 1392h258l-119 -495q29 4 70 5t69 1q143 0 240.5 -30t158 -84t86 -128t25.5 -160q0 -121 -45 -220t-135 -172t-225 -112.5t-318 -39.5q-98 0 -208.5 11t-192.5 32zM469 211q23 -4 61.5 -6t87.5 -2q193 0 300.5 79.5t107.5 229.5q0 96 -69.5 149.5t-215.5 53.5 q-43 0 -83 -1t-68 -5z" />
<glyph unicode="&#x42d;" horiz-adv-x="1232" d="M66 72l112 204q59 -35 137 -59t177 -24q106 0 192 31.5t152.5 88t111.5 134t72 167.5h-588l53 217h572q2 29 2 38.5v25.5q0 88 -24.5 150.5t-69.5 102.5t-106.5 58.5t-135.5 18.5q-109 0 -196 -23.5t-146 -50.5l-16 217q59 29 166.5 56.5t244.5 27.5q117 0 215.5 -33 t171 -98.5t113.5 -163.5t41 -229q0 -223 -61.5 -400.5t-172 -301.5t-264 -190.5t-340.5 -66.5q-147 0 -251.5 34t-161.5 69z" />
<glyph unicode="&#x42e;" horiz-adv-x="2107" d="M160 0l338 1419h260l-137 -569h278q39 123 106.5 231.5t163 191.5t217 131t269.5 48q117 0 215 -38t169.5 -109.5t111.5 -178t40 -243.5q0 -164 -53 -328t-154.5 -294t-251.5 -211t-343 -81q-117 0 -216.5 38t-170 109.5t-110.5 178t-40 244.5q0 23 1 46t3 46h-287 l-151 -631h-258zM1118 561q0 -168 71 -268t226 -100q113 0 206 58t160.5 152.5t104.5 214t37 242.5q0 168 -70.5 268.5t-224.5 100.5q-113 0 -207 -58.5t-161.5 -152.5t-104.5 -214t-37 -243z" />
<glyph unicode="&#x42f;" horiz-adv-x="1308" d="M76 0q55 82 117.5 166t126 162t121 146.5t104.5 117.5q-92 53 -138.5 122.5t-46.5 180.5q0 143 58.5 245.5t157 168t226.5 95.5t267 30q111 0 215.5 -10.5t190.5 -30.5l-334 -1393h-258l127 532h-99q-31 0 -62.5 1.5t-72.5 5.5q-45 -49 -97 -110.5t-107.5 -132.5 t-112 -146.5t-107.5 -149.5h-276zM631 924q0 -94 63.5 -136.5t200.5 -42.5h166l110 461q-23 4 -61.5 6t-89.5 2q-74 0 -143.5 -13t-124 -46t-88 -89t-33.5 -142z" />
<glyph unicode="&#x430;" horiz-adv-x="1142" d="M195 387q0 150 53 279t148.5 223t226.5 148.5t286 54.5q80 0 161 -13.5t163 -50.5l-148 -612q-6 -23 -12 -74t-6 -96q0 -59 10 -115.5t33 -114.5l-221 -32q-25 49 -39 104q-51 -45 -126 -81t-169 -36q-96 0 -164.5 32t-111.5 88t-63.5 132t-20.5 164zM440 408 q0 -47 8.5 -88t28 -72t52 -49.5t83.5 -18.5q66 0 116 28t93 75q2 53 9.5 100t19.5 94l100 402q-39 8 -88 8q-92 0 -170 -40t-134 -106.5t-87 -152.5t-31 -180z" />
<glyph unicode="&#x431;" horiz-adv-x="1124" d="M213 395q0 147 38 301t81 281q41 123 102.5 221t149.5 170t204.5 117t268.5 61q94 10 151.5 19.5t112.5 23.5l-10 -217q-49 -12 -115 -19t-156 -20q-178 -23 -285.5 -105.5t-170.5 -242.5q53 29 120.5 46.5t129.5 17.5q160 0 256 -96.5t96 -280.5q0 -154 -43 -282 t-122 -221t-190.5 -145.5t-248.5 -52.5q-174 0 -271.5 106.5t-97.5 317.5zM453 422q0 -129 41 -184.5t127 -55.5q70 0 130 37t104 100.5t68.5 145.5t24.5 172q0 94 -41 149.5t-137 55.5q-68 0 -136.5 -23.5t-121.5 -60.5q-29 -100 -44 -186.5t-15 -149.5z" />
<glyph unicode="&#x432;" horiz-adv-x="1130" d="M147 33l152 639q29 119 79 199.5t117.5 131t149.5 72t174 21.5q168 0 257 -75t89 -190q0 -100 -55 -171.5t-147 -104.5q72 -25 113.5 -82t41.5 -129q0 -178 -143.5 -272.5t-417.5 -94.5q-102 0 -207.5 13.5t-202.5 42.5zM426 182q29 -4 73 -8t95 -4q55 0 106.5 8t91 29.5 t64.5 55.5t25 87q0 63 -50.5 91t-150.5 28h-186zM535 641h137q125 0 192.5 38t67.5 116q0 51 -36 78.5t-97 27.5q-96 0 -164 -50t-94 -183z" />
<glyph unicode="&#x433;" horiz-adv-x="931" d="M143 244q0 106 46.5 173.5t116 110.5t151.5 70t151.5 53.5t115.5 61.5t46 92q0 49 -38 70.5t-105 21.5q-86 0 -150.5 -20.5t-107.5 -36.5l-11 198q47 20 136.5 40t187.5 20q66 0 126 -15.5t106.5 -47t74 -81t27.5 -114.5q0 -113 -47 -183.5t-117 -114.5t-152 -71 t-151.5 -53.5t-116.5 -60t-47 -91.5q0 -51 41 -70.5t127 -19.5q92 0 171 22.5t134 45.5l12 -207q-18 -8 -52 -19.5t-80 -21.5t-102 -17.5t-120 -7.5q-186 0 -279.5 76t-93.5 197z" />
<glyph unicode="&#x434;" horiz-adv-x="1138" d="M199 371q0 133 36.5 256t109.5 217t178.5 150.5t242.5 56.5q47 0 97 -9.5t93 -25.5q-6 80 -24.5 146.5t-57 114.5t-101.5 75.5t-155 27.5q-61 0 -110 -11t-84 -28l-18 209q41 14 105 26.5t140 12.5q123 0 223.5 -36.5t171 -114.5t109.5 -203t39 -299q0 -180 -33 -353 t-106.5 -309.5t-191.5 -219.5t-290 -83q-184 0 -279 106.5t-95 293.5zM436 369q0 -78 38 -131.5t130 -53.5q78 0 140.5 49.5t106.5 134.5t69.5 198.5t31.5 240.5q-35 18 -76 29.5t-98 11.5q-86 0 -150.5 -41t-106.5 -107.5t-63.5 -152.5t-21.5 -178z" />
<glyph unicode="&#x435;" horiz-adv-x="1071" d="M199 387q0 137 44 265t127 227.5t199.5 159t261.5 59.5q156 0 242 -80t86 -205q0 -129 -63.5 -209t-165 -125t-229.5 -61.5t-259 -20.5q-2 -4 -2 -8v-20q0 -186 236 -187q139 0 278 58l21 -201q-49 -23 -139.5 -45.5t-204.5 -22.5q-115 0 -197 33t-134 90.5t-76.5 132 t-24.5 160.5zM459 575q246 8 357.5 59.5t111.5 153.5q0 41 -29.5 74t-103.5 33q-61 0 -116.5 -24.5t-98.5 -67.5t-75 -101.5t-46 -126.5z" />
<glyph unicode="&#x436;" horiz-adv-x="1832" d="M47 12l66 199q29 -16 57.5 -21.5t54.5 -5.5q84 0 142.5 48.5t95.5 123t53 164.5t16 174q0 29 -6 63t-21.5 62.5t-42 47t-69.5 18.5q-23 0 -47 -6.5t-41 -14.5l-12 193q33 14 80 25.5t94 11.5q137 0 206.5 -100.5t69.5 -274.5v-40t-4 -42h195l104 434h236l-105 -434h177 q27 98 70.5 181t105 144.5t139.5 96.5t172 35q53 0 89 -9.5t77 -29.5l-66 -197q-49 25 -102 25q-86 0 -144.5 -50.5t-94.5 -126t-52 -164.5t-16 -167q0 -88 33.5 -140.5t107.5 -52.5q37 0 70.5 8.5t62.5 18.5l12 -195q-37 -16 -87 -28.5t-103 -12.5q-150 0 -229.5 101.5 t-79.5 273.5q0 47 6 101h-193l-108 -449h-234l107 449h-176q-25 -100 -67 -186.5t-103.5 -151t-141 -101.5t-178.5 -37q-53 0 -93 8.5t-83 30.5z" />
<glyph unicode="&#x437;" horiz-adv-x="929" d="M80 37l74 199q39 -23 106.5 -39.5t163.5 -16.5q45 0 90 8.5t82 26.5t60.5 50t23.5 81q0 35 -16.5 56.5t-43 34t-58.5 16.5t-64 4h-150l45 184h152q84 0 144.5 37t60.5 115q0 59 -45.5 79.5t-116.5 20.5q-39 0 -80 -6t-78 -13.5t-65.5 -16.5t-42.5 -15l-15 198 q55 20 142.5 38t191.5 18q172 0 262 -72t90 -193q0 -80 -52 -154.5t-157 -115.5q141 -63 142 -211q0 -100 -44 -172t-118 -117t-167 -66.5t-191 -21.5q-102 0 -186.5 17.5t-139.5 46.5z" />
<glyph unicode="&#x438;" horiz-adv-x="1161" d="M219 313q0 90 25 195l135 563h248l-133 -557q-27 -106 -27 -174q0 -33 6 -61.5t21.5 -50t43 -34t68.5 -12.5q68 0 121 28t98 75q6 88 29 180l143 606h248l-151 -637q-10 -47 -15.5 -94t-5.5 -94q0 -59 9.5 -116.5t31.5 -113.5l-221 -32q-12 23 -21.5 50t-17.5 56 q-51 -41 -127 -79t-176 -38q-90 0 -153.5 27t-103.5 73t-57.5 108.5t-17.5 131.5z" />
<glyph unicode="&#x439;" horiz-adv-x="1161" d="M219 313q0 90 25 195l135 563h248l-133 -557q-27 -106 -27 -174q0 -33 6 -61.5t21.5 -50t43 -34t68.5 -12.5q68 0 121 28t98 75q6 88 29 180l143 606h248l-151 -637q-10 -47 -15.5 -94t-5.5 -94q0 -59 9.5 -116.5t31.5 -113.5l-221 -32q-12 23 -21.5 50t-17.5 56 q-51 -41 -127 -79t-176 -38q-90 0 -153.5 27t-103.5 73t-57.5 108.5t-17.5 131.5zM549 1499l183 45q4 -72 34.5 -107.5t98.5 -35.5q121 0 184 145l166 -57q-47 -129 -144.5 -193.5t-234.5 -64.5q-123 0 -202 68.5t-85 199.5z" />
<glyph unicode="&#x43a;" horiz-adv-x="1150" d="M150 0l256 1071h247l-98 -414q66 49 133.5 106.5t129 113t112.5 106.5l88 88h299q-51 -57 -115.5 -120.5t-136.5 -129t-148.5 -130t-150.5 -120.5q51 -53 103.5 -121.5t99.5 -145.5t87 -155.5t66 -148.5h-274q-59 135 -146.5 270.5t-185.5 227.5l-121 -498h-245z" />
<glyph unicode="&#x43b;" horiz-adv-x="1198" d="M74 186q86 4 149.5 48.5t109.5 114t77.5 158.5t54 186.5t40 194.5t36.5 183h755l-258 -1071h-247l206 866h-264q-47 -184 -92 -341.5t-115.5 -275.5t-177 -188.5t-272.5 -78.5z" />
<glyph unicode="&#x43c;" horiz-adv-x="1486" d="M150 0q33 119 74.5 258t86.5 281.5t91.5 278.5t86.5 253h224q31 -133 64.5 -310t70.5 -380q141 229 256 401t201 289h223q-10 -113 -23.5 -245t-32 -271t-42 -280.5t-52.5 -274.5h-243q37 162 74.5 350.5t68.5 370.5q-47 -68 -98.5 -145.5t-103.5 -156.5t-99 -152.5 t-84 -133.5h-182q-10 57 -24.5 132t-30 155t-31 158.5t-29.5 146.5q-59 -182 -114.5 -373.5t-98.5 -351.5h-233z" />
<glyph unicode="&#x43d;" horiz-adv-x="1193" d="M150 0l258 1071h247l-100 -418h389l100 418h248l-258 -1071h-248l107 449h-389l-107 -449h-247z" />
<glyph unicode="&#x43e;" horiz-adv-x="1153" d="M199 381q0 119 36.5 246t112.5 231.5t190.5 172t270.5 67.5q190 0 290.5 -112t100.5 -296q0 -121 -36 -248t-110.5 -231.5t-190 -172t-273.5 -67.5q-190 0 -290.5 113t-100.5 297zM444 403q0 -102 39 -161.5t138 -59.5q80 0 142 46t104 117t64.5 157t22.5 164 q0 102 -39 162.5t-137 60.5q-80 0 -142.5 -46t-104.5 -118t-64.5 -157t-22.5 -165z" />
<glyph unicode="&#x43f;" horiz-adv-x="1153" d="M150 0l245 1026q82 25 187.5 46.5t230.5 21.5q188 0 276.5 -92.5t88.5 -247.5q0 -43 -7.5 -91.5t-17.5 -99.5l-135 -563h-248l127 537q10 45 20.5 92t12.5 90q2 72 -34 119t-140 47q-88 0 -152 -19l-207 -866h-247z" />
<glyph unicode="&#x440;" horiz-adv-x="1155" d="M59 -379l338 1407q84 31 187.5 49.5t208.5 18.5q106 0 185 -32t129 -87t74.5 -130t24.5 -161q0 -145 -46 -273t-135 -224.5t-217 -152.5t-294 -56q-29 0 -58.5 3t-58.5 7l-90 -369h-248zM444 193q20 -4 43 -5.5t45 -1.5q98 0 177 38t134.5 102.5t85 151.5t29.5 186 q0 45 -10 84.5t-33.5 70.5t-63.5 49.5t-101 18.5q-41 0 -78 -5t-66 -14z" />
<glyph unicode="&#x441;" horiz-adv-x="940" d="M199 406q0 139 44 265t126 221t200.5 150.5t270.5 55.5q80 0 146.5 -13.5t125.5 -40.5l-88 -198q-37 16 -82 28.5t-111 12.5q-88 0 -158.5 -36t-119.5 -97.5t-75.5 -145.5t-26.5 -178q0 -53 11 -97t36.5 -78t70.5 -52.5t113 -18.5q70 0 134.5 18.5t98.5 37.5l21 -203 q-47 -23 -125 -44.5t-176 -21.5q-113 0 -195 34t-136 92.5t-79.5 137.5t-25.5 171z" />
<glyph unicode="&#x442;" horiz-adv-x="1724" d="M150 0l245 1026q82 25 184.5 46.5t225.5 21.5q92 0 154.5 -27t105.5 -76q59 35 144 69t194 34q94 0 159.5 -27t106.5 -74t59.5 -111.5t18.5 -140.5q0 -84 -23 -178l-135 -563h-248l127 537q10 39 19.5 85t9.5 93q0 33 -7 64.5t-25.5 54t-50.5 37t-81 14.5 q-53 0 -104 -20.5t-86 -43.5q8 -39 8 -84q0 -41 -6 -86t-17 -88l-135 -563h-248l127 537q10 37 19.5 85t9.5 95q0 68 -31.5 118t-119.5 50q-41 0 -78 -5.5t-68 -13.5l-207 -866h-247z" />
<glyph unicode="&#x443;" horiz-adv-x="1011" d="M-115 -336l80 199q29 -16 65 -26.5t79 -10.5q96 0 168.5 50t132.5 136q-66 227 -111 493.5t-59 565.5h249q2 -86 9.5 -190.5t18.5 -214t27.5 -216t37.5 -196.5q61 98 114.5 206.5t98.5 216t78.5 209t58.5 185.5h262q-41 -117 -90 -243t-109.5 -252.5t-130 -252.5 t-149.5 -245q-59 -90 -123 -173t-138.5 -146.5t-164.5 -102.5t-205 -39q-63 0 -113.5 14.5t-85.5 32.5z" />
<glyph unicode="&#x444;" horiz-adv-x="1540" d="M199 440q0 147 54 264t149.5 200t224.5 129t276 54l111 459l250 43l-123 -510q199 -23 318.5 -135.5t119.5 -320.5q0 -129 -49 -245t-141.5 -203t-222.5 -139t-292 -54l-88 -361h-235l88 367q-217 23 -328.5 141t-111.5 311zM446 449q0 -104 55.5 -180t184.5 -87l170 709 q-84 -4 -158.5 -38t-130 -92.5t-88.5 -138t-33 -173.5zM918 170q86 4 160.5 38t130 91t87 137t31.5 176q0 104 -55 180t-185 87z" />
<glyph unicode="&#x445;" horiz-adv-x="1021" d="M18 0l490 549l-264 522h260l170 -360q78 94 145.5 184t122.5 176h256q-86 -127 -190.5 -259t-227.5 -267q74 -141 135.5 -275.5t108.5 -269.5h-250q-33 96 -75 192.5t-85 182.5l-325 -375h-271z" />
<glyph unicode="&#x446;" horiz-adv-x="1216" d="M219 317q0 47 7 95.5t18 95.5l135 563h248l-129 -541q-10 -39 -20.5 -90t-10.5 -94q0 -33 5 -62.5t20.5 -52t43 -36t70.5 -13.5q68 0 121 25.5t98 73.5q6 88 29 182l143 608h248l-153 -645q-8 -33 -16.5 -74t-8.5 -71q0 -27 6 -48.5t22.5 -39t47.5 -28.5t78 -18 l-115 -450h-219l80 321q-33 10 -56 32.5t-37 47.5q-51 -45 -131.5 -85t-191.5 -40q-92 0 -154.5 27t-102.5 74t-57.5 109.5t-17.5 133.5z" />
<glyph unicode="&#x447;" horiz-adv-x="1095" d="M240 637q0 63 18 135l72 299h248l-80 -326q-10 -41 -11 -69q0 -68 47.5 -92.5t122.5 -24.5q49 0 95.5 8t76.5 19l117 485h248l-258 -1071h-248l92 385q-35 -10 -84 -18.5t-106 -8.5q-162 0 -256 68t-94 211z" />
<glyph unicode="&#x448;" horiz-adv-x="1746" d="M246 328q0 82 22 178l138 565h247l-129 -539q-10 -39 -19 -86t-9 -92q0 -70 33.5 -120t129.5 -50q53 0 103.5 19.5t85.5 42.5q-6 37 -6 73q0 45 5 92.5t17 96.5l135 563h248l-127 -536q-10 -37 -19 -86.5t-9 -98.5q0 -33 7 -62.5t23.5 -53t43 -37t67.5 -13.5q55 0 104 30 t86 71q2 23 8.5 74t16.5 96l147 616h248l-149 -627q-25 -104 -25 -196q0 -59 10.5 -114.5t32.5 -117.5l-221 -32q-12 25 -21.5 51t-17.5 55q-49 -43 -122 -80t-165 -37q-141 0 -239 103q-59 -35 -144.5 -69t-191.5 -34q-174 0 -259 96.5t-85 258.5z" />
<glyph unicode="&#x449;" horiz-adv-x="1822" d="M246 328q0 82 22 178l138 565h247l-129 -539q-10 -39 -19 -86t-9 -92q0 -70 33.5 -120t129.5 -50q53 0 103.5 19.5t85.5 42.5q-6 37 -6 73q0 45 5 92.5t17 96.5l135 563h248l-127 -536q-10 -37 -19 -86.5t-9 -98.5q0 -33 7 -62.5t23.5 -53t43 -37t67.5 -13.5 q57 0 106.5 29t83.5 63q2 29 8.5 81.5t16.5 97.5l147 616h248l-153 -643q-8 -33 -16.5 -75t-8.5 -72q0 -27 6 -48.5t22.5 -39t47.5 -28.5t78 -18l-115 -450h-219l80 321q-33 10 -55.5 33t-34.5 45q-47 -41 -123 -82t-187 -41q-141 0 -239 103q-59 -35 -144.5 -69t-191.5 -34 q-174 0 -259 96.5t-85 258.5z" />
<glyph unicode="&#x44a;" horiz-adv-x="1228" d="M240 866l49 205h499l-96 -395q41 10 89 15t91 5q178 0 274.5 -77.5t96.5 -229.5q0 -98 -39 -175t-110.5 -129t-174 -80t-229.5 -28q-100 0 -203.5 12.5t-197.5 41.5l203 835h-252zM571 180q29 -4 65 -7t85 -3q135 0 209 50t74 149q0 66 -48.5 101.5t-154.5 35.5 q-41 0 -83 -5t-71 -12z" />
<glyph unicode="&#x44b;" horiz-adv-x="1611" d="M156 31l250 1040h247l-96 -395q41 10 89 15t89 5q174 0 270.5 -77.5t96.5 -229.5q0 -98 -38 -175t-108.5 -129t-172 -80t-226.5 -28q-98 0 -200.5 12.5t-200.5 41.5zM440 180q29 -4 64 -7t84 -3q131 0 203.5 50t72.5 149q0 66 -47 101.5t-151 35.5q-43 0 -84 -5t-70 -12z M1206 0l256 1071h248l-258 -1071h-246z" />
<glyph unicode="&#x44c;" horiz-adv-x="1095" d="M156 31l250 1040h247l-96 -395q41 10 90 15t92 5q180 0 275.5 -77.5t95.5 -229.5q0 -98 -39 -175t-110.5 -129t-173 -80t-228.5 -28q-100 0 -203.5 12.5t-199.5 41.5zM440 180q29 -4 64 -7t86 -3q133 0 207.5 50t74.5 149q0 66 -49 101.5t-155 35.5q-41 0 -84 -5t-72 -12 z" />
<glyph unicode="&#x44d;" horiz-adv-x="970" d="M76 37l74 205q53 -25 111 -41.5t134 -16.5q143 0 235.5 72t127.5 197h-420l45 186h399q0 123 -56 187.5t-183 64.5q-66 0 -133.5 -17.5t-108.5 -37.5l-14 198q53 25 132 44.5t171 19.5q111 0 191.5 -34t134 -90t79 -133t25.5 -163q0 -170 -45 -301t-129 -220t-204 -136.5 t-267 -47.5q-92 0 -169 17.5t-130 46.5z" />
<glyph unicode="&#x44e;" horiz-adv-x="1673" d="M150 0l258 1071h245l-100 -422h225q29 88 78 170t118.5 143.5t161 98.5t201.5 37q184 0 283.5 -112t99.5 -296q0 -121 -35.5 -248t-109.5 -231.5t-187.5 -172t-269.5 -67.5q-184 0 -283.5 113t-99.5 297v33.5t2 34.5h-233l-109 -449h-245zM981 403q0 -102 38 -161.5 t130 -59.5q76 0 137.5 46t102.5 117t63.5 157t22.5 164q0 102 -38 162.5t-130 60.5q-78 0 -138.5 -46t-101.5 -118t-63.5 -157t-22.5 -165z" />
<glyph unicode="&#x44f;" horiz-adv-x="1142" d="M72 0q86 123 179 239.5t179 211.5q-147 72 -147 235q0 113 46 190.5t122.5 126t177 70t209.5 21.5q106 0 208.5 -14.5t188.5 -39.5l-250 -1040h-246l95 397h-101h-46t-42 2q-78 -92 -158.5 -196.5t-152.5 -202.5h-262zM528 702q0 -70 48.5 -97t140.5 -27h160l75 313 q-25 4 -56.5 8t-80.5 4q-61 0 -113.5 -12t-90.5 -37t-60.5 -62.5t-22.5 -89.5z" />
<glyph unicode="&#x450;" horiz-adv-x="1071" d="M199 387q0 137 44 265t127 227.5t199.5 159t261.5 59.5q156 0 242 -80t86 -205q0 -129 -63.5 -209t-165 -125t-229.5 -61.5t-259 -20.5q-2 -4 -2 -8v-20q0 -186 236 -187q139 0 278 58l21 -201q-49 -23 -139.5 -45.5t-204.5 -22.5q-115 0 -197 33t-134 90.5t-76.5 132 t-24.5 160.5zM459 575q246 8 357.5 59.5t111.5 153.5q0 41 -29.5 74t-103.5 33q-61 0 -116.5 -24.5t-98.5 -67.5t-75 -101.5t-46 -126.5zM598 1454l152 162l303 -322l-115 -114z" />
<glyph unicode="&#x451;" horiz-adv-x="1071" d="M199 387q0 137 44 265t127 227.5t199.5 159t261.5 59.5q156 0 242 -80t86 -205q0 -129 -63.5 -209t-165 -125t-229.5 -61.5t-259 -20.5q-2 -4 -2 -8v-20q0 -186 236 -187q139 0 278 58l21 -201q-49 -23 -139.5 -45.5t-204.5 -22.5q-115 0 -197 33t-134 90.5t-76.5 132 t-24.5 160.5zM459 575q246 8 357.5 59.5t111.5 153.5q0 41 -29.5 74t-103.5 33q-61 0 -116.5 -24.5t-98.5 -67.5t-75 -101.5t-46 -126.5zM551 1366q0 35 13.5 64.5t33.5 50t47 32t53 11.5q53 0 89 -34t36 -91q0 -33 -13 -60.5t-34.5 -48t-48 -32t-53.5 -11.5q-53 0 -88 33 t-35 86zM973 1366q0 35 13 64.5t33.5 50t47.5 32t53 11.5q53 0 89 -34t36 -91q0 -33 -13 -60.5t-34.5 -48t-48 -32t-53.5 -11.5q-53 0 -88 33t-35 86z" />
<glyph unicode="&#x452;" horiz-adv-x="1150" d="M150 0l296 1239h-139l39 166h139l35 143l258 41l-45 -184h307l-39 -166h-309l-45 -192q41 10 90 19t97 9q90 0 154.5 -25.5t106.5 -70.5t61.5 -108.5t19.5 -137.5q0 -43 -5.5 -82t-17.5 -88l-129 -545q-25 -102 -55.5 -176.5t-76.5 -125t-109.5 -75t-155.5 -24.5 q-43 0 -88 9t-82 26l63 192q18 -8 40 -13t48 -5q66 0 104 41t54 115l133 555q10 47 19.5 88t9.5 84q0 68 -36 113.5t-136 45.5q-41 0 -82 -7t-74 -17l-203 -844h-247z" />
<glyph unicode="&#x453;" horiz-adv-x="931" d="M143 244q0 106 46.5 173.5t116 110.5t151.5 70t151.5 53.5t115.5 61.5t46 92q0 49 -38 70.5t-105 21.5q-86 0 -150.5 -20.5t-107.5 -36.5l-11 198q47 20 136.5 40t187.5 20q66 0 126 -15.5t106.5 -47t74 -81t27.5 -114.5q0 -113 -47 -183.5t-117 -114.5t-152 -71 t-151.5 -53.5t-116.5 -60t-47 -91.5q0 -51 41 -70.5t127 -19.5q92 0 171 22.5t134 45.5l12 -207q-18 -8 -52 -19.5t-80 -21.5t-102 -17.5t-120 -7.5q-186 0 -279.5 76t-93.5 197zM572 1317l354 305l133 -168l-387 -260z" />
<glyph unicode="&#x454;" horiz-adv-x="980" d="M197 408q0 145 47 271t132 219t204.5 146.5t267.5 53.5q76 0 145.5 -12.5t136.5 -45.5l-86 -196q-39 23 -91 36t-124 13q-123 0 -220 -62.5t-138 -191.5h416l-45 -186h-412q-2 -12 -2 -24.5v-22.5q0 -102 61.5 -162t190.5 -60q82 0 157.5 22.5t108.5 43.5l17 -205 q-61 -33 -145.5 -53.5t-168.5 -20.5q-211 0 -331.5 111t-120.5 326z" />
<glyph unicode="&#x455;" horiz-adv-x="897" d="M92 57l88 195q14 -8 42 -21.5t64 -25.5t80 -21.5t93 -9.5q98 0 155.5 32t57.5 97q0 53 -37 85t-129 75q-49 23 -91 47.5t-73 57t-49.5 76.5t-18.5 106q0 160 117 254t338 94q102 0 183 -21.5t122 -44.5l-88 -192q-35 20 -100.5 39.5t-136.5 19.5q-35 0 -69 -6 t-60.5 -20.5t-44 -40t-17.5 -62.5q0 -47 38 -76.5t110 -62.5q68 -31 114.5 -59.5t77.5 -64.5t45.5 -80t14.5 -105q0 -76 -31 -140.5t-89.5 -110.5t-144.5 -73t-196 -27q-76 0 -136.5 10.5t-105.5 23.5t-75.5 27.5t-47.5 24.5z" />
<glyph unicode="&#x456;" horiz-adv-x="555" d="M150 0l256 1071h247l-258 -1071h-245zM442 1364q0 76 52.5 125t119.5 49q55 0 97.5 -34t42.5 -99q0 -76 -53 -124t-121 -48q-55 0 -96.5 32.5t-41.5 98.5z" />
<glyph unicode="&#x457;" horiz-adv-x="555" d="M150 0l256 1071h247l-258 -1071h-245zM258 1366q0 35 13.5 64.5t33.5 50t47 32t53 11.5q53 0 89 -34t36 -91q0 -33 -13 -60.5t-34.5 -48t-48 -32t-53.5 -11.5q-53 0 -88 33t-35 86zM680 1366q0 35 13 64.5t33.5 50t47.5 32t53 11.5q53 0 89 -34t36 -91q0 -33 -13 -60.5 t-34.5 -48t-48 -32t-53.5 -11.5q-53 0 -88 33t-35 86z" />
<glyph unicode="&#x458;" horiz-adv-x="565" d="M-209 -344l62 199q25 -10 56.5 -18.5t67.5 -8.5q84 0 127 58.5t66 156.5l246 1028h248l-248 -1032q-27 -111 -63 -190.5t-88 -131t-122.5 -76t-169.5 -24.5q-47 0 -97 11.5t-85 27.5zM455 1364q0 76 52 125t120 49q55 0 97 -34t42 -99q0 -76 -53 -124t-121 -48 q-55 0 -96 32.5t-41 98.5z" />
<glyph unicode="&#x459;" horiz-adv-x="1714" d="M53 186q109 6 179.5 65.5t115.5 150t71.5 198t51.5 209.5q16 66 26.5 124t26.5 138h756l-96 -395q39 10 88 15t90 5q174 0 270.5 -77.5t96.5 -229.5q0 -98 -39 -175t-110 -129t-172 -80t-226 -28q-98 0 -200.5 12.5t-199.5 41.5l199 835h-266q-45 -184 -91 -341.5 t-116 -275.5t-177.5 -188.5t-275.5 -78.5zM1065 180q29 -4 63.5 -7t83.5 -3q131 0 204 50t73 149q0 66 -47.5 101.5t-151.5 35.5q-41 0 -82 -5t-69 -12z" />
<glyph unicode="&#x45a;" horiz-adv-x="1722" d="M150 0l258 1071h247l-98 -403h385l98 403h248l-96 -395q41 10 89 15t89 5q174 0 270.5 -77.5t96.5 -229.5q0 -98 -39 -175t-109.5 -129t-172 -80t-226.5 -28q-98 0 -200.5 12.5t-198.5 41.5l102 432h-385l-111 -463h-247zM1073 180q29 -4 63.5 -7t84.5 -3q131 0 203.5 50 t72.5 149q0 66 -47.5 101.5t-151.5 35.5q-41 0 -81.5 -5t-69.5 -12z" />
<glyph unicode="&#x45b;" horiz-adv-x="1153" d="M152 0l297 1239h-140l39 166h139l35 143l258 41l-45 -184h307l-38 -166h-310l-45 -192q41 10 90 19t97 9q90 0 154.5 -25.5t106.5 -70.5t61.5 -108.5t19.5 -137.5q0 -43 -5.5 -82t-17.5 -88l-135 -563h-248l129 537q10 47 19.5 88t9.5 84q0 68 -36 113.5t-136 45.5 q-41 0 -82 -7t-74 -17l-203 -844h-247z" />
<glyph unicode="&#x45c;" horiz-adv-x="1150" d="M150 0l256 1071h247l-98 -414q66 49 133.5 106.5t129 113t112.5 106.5l88 88h299q-51 -57 -115.5 -120.5t-136.5 -129t-148.5 -130t-150.5 -120.5q51 -53 103.5 -121.5t99.5 -145.5t87 -155.5t66 -148.5h-274q-59 135 -146.5 270.5t-185.5 227.5l-121 -498h-245z M725 1317l354 305l133 -168l-387 -260z" />
<glyph unicode="&#x45d;" horiz-adv-x="1161" d="M219 313q0 90 25 195l135 563h248l-133 -557q-27 -106 -27 -174q0 -33 6 -61.5t21.5 -50t43 -34t68.5 -12.5q68 0 121 28t98 75q6 88 29 180l143 606h248l-151 -637q-10 -47 -15.5 -94t-5.5 -94q0 -59 9.5 -116.5t31.5 -113.5l-221 -32q-12 23 -21.5 50t-17.5 56 q-51 -41 -127 -79t-176 -38q-90 0 -153.5 27t-103.5 73t-57.5 108.5t-17.5 131.5zM563 1454l152 162l303 -322l-115 -114z" />
<glyph unicode="&#x45e;" horiz-adv-x="1011" d="M-115 -336l80 199q29 -16 65 -26.5t79 -10.5q96 0 168.5 50t132.5 136q-66 227 -111 493.5t-59 565.5h249q2 -86 9.5 -190.5t18.5 -214t27.5 -216t37.5 -196.5q61 98 114.5 206.5t98.5 216t78.5 209t58.5 185.5h262q-41 -117 -90 -243t-109.5 -252.5t-130 -252.5 t-149.5 -245q-59 -90 -123 -173t-138.5 -146.5t-164.5 -102.5t-205 -39q-63 0 -113.5 14.5t-85.5 32.5zM444 1499l183 45q4 -72 34.5 -107.5t98.5 -35.5q121 0 184 145l166 -57q-47 -129 -144.5 -193.5t-234.5 -64.5q-123 0 -202 68.5t-85 199.5z" />
<glyph unicode="&#x45f;" horiz-adv-x="1161" d="M219 313q0 90 25 195l135 563h248l-133 -557q-27 -106 -27 -174q0 -33 6 -61.5t21.5 -50t43 -34t68.5 -12.5q68 0 121 28t98 75q6 88 29 180l143 606h248l-151 -637q-10 -47 -15.5 -94t-5.5 -94q0 -59 9.5 -116.5t31.5 -113.5l-221 -32q-12 23 -21.5 50t-17.5 56 q-51 -41 -127 -79t-176 -38q-90 0 -153.5 27t-103.5 73t-57.5 108.5t-17.5 131.5zM387 -379l78 293h221l-80 -293h-219z" />
<glyph unicode="&#x462;" horiz-adv-x="1429" d="M256 1139l51 209h346l41 163h258l-39 -163h371l-49 -209h-373l-51 -221q27 2 59.5 2h79.5q141 0 238.5 -29t157 -82t86 -127t26.5 -162q0 -117 -44 -215t-133 -170t-224 -111.5t-316 -39.5q-98 0 -208.5 11t-194.5 32l266 1112h-348zM641 211q23 -4 60.5 -6t84.5 -2 q195 0 300.5 78.5t105.5 222.5q0 98 -68.5 150.5t-212.5 52.5h-72.5t-78.5 -5z" />
<glyph unicode="&#x463;" horiz-adv-x="1708" d="M150 0l245 1026q82 27 187.5 47.5t230.5 20.5q188 0 276.5 -93.5t88.5 -248.5q0 -39 -7 -78q41 10 92.5 16t92.5 6q174 0 270 -77.5t96 -229.5q0 -98 -37.5 -175t-108.5 -129t-172 -80t-226 -28q-98 0 -201 12.5t-201 41.5l125 520q10 43 19.5 88t9.5 86q0 33 -8.5 62.5 t-28 51t-53 34t-84.5 12.5q-41 0 -80 -5.5t-72 -13.5l-207 -866h-247zM1061 180q29 -4 63.5 -7t83.5 -3q131 0 204 50t73 149q0 66 -47.5 101.5t-151.5 35.5q-41 0 -83 -5t-68 -12z" />
<glyph unicode="&#x472;" horiz-adv-x="1519" d="M248 539q0 164 53 327.5t156.5 293.5t255 211t348.5 81q119 0 219 -38t172 -109.5t112 -178t40 -243.5q0 -164 -53.5 -328t-156 -294t-254.5 -211t-349 -81q-119 0 -218.5 38t-172 109.5t-112.5 178t-40 244.5zM516 561q0 -168 71.5 -268t229.5 -100q82 0 154.5 29.5 t133 81.5t106.5 123t75 153q-76 -39 -162 -39q-68 0 -119 19.5t-97 43t-91 43t-102 19.5q-53 0 -105.5 -26t-93.5 -56v-23zM547 780q49 35 106.5 56.5t118.5 21.5q68 0 119 -19.5t97 -43t91 -43t103 -19.5q37 0 75.5 12.5t73.5 32.5q6 39 6 80q0 168 -72.5 269.5 t-230.5 101.5q-90 0 -168 -36t-140 -97.5t-108.5 -142.5t-70.5 -173z" />
<glyph unicode="&#x473;" horiz-adv-x="1153" d="M199 381q0 119 36.5 246t112.5 231.5t190.5 172t270.5 67.5q190 0 290.5 -112t100.5 -296q0 -121 -36 -248t-110.5 -231.5t-190 -172t-273.5 -67.5q-190 0 -290.5 113t-100.5 297zM434 399q0 -104 41 -165.5t141 -61.5q55 0 103.5 22.5t87.5 61.5t68.5 90t50.5 109 q-59 -33 -113 -33q-41 0 -74.5 16.5t-63.5 35t-59.5 34.5t-64.5 16q-29 0 -58.5 -13t-54.5 -32q-4 -23 -4 -43v-37zM475 618q29 18 59.5 31t65.5 13q41 0 74 -15.5t63.5 -35t60 -35t64.5 -15.5q25 0 50.5 9.5t48.5 25.5q2 16 3 34.5t1 37.5q0 104 -41.5 167.5t-141.5 63.5 q-55 0 -102 -23.5t-86 -61.5t-68.5 -89t-50.5 -107z" />
<glyph unicode="&#x474;" horiz-adv-x="1470" d="M334 1419h272q23 -301 52.5 -580.5t70.5 -533.5l463 842q39 74 81 129t88 91t100.5 54.5t119.5 18.5q102 0 160.5 -37t87.5 -74l-135 -166q-23 27 -52.5 39t-58.5 12q-47 0 -80 -27.5t-76 -101.5l-632 -1085h-254q-63 330 -117.5 684t-89.5 735z" />
<glyph unicode="&#x475;" horiz-adv-x="1136" d="M254 1071h254q2 -90 7 -194.5t14.5 -209t20.5 -203.5t23 -177l320 565q70 125 144.5 182.5t187.5 57.5q61 0 105 -15.5t81 -38.5l-86 -172q-20 12 -40.5 20.5t-49.5 8.5q-47 0 -78 -27.5t-61 -81.5l-471 -786h-226q-51 209 -91 484.5t-54 586.5z" />
<glyph unicode="&#x48a;" horiz-adv-x="1507" d="M160 0l340 1419h256l-230 -950q92 109 206 237t232.5 256t236.5 246.5t220 210.5h215l-288 -1200h192q-27 -180 -121 -334.5t-260 -271.5l-143 119q66 53 124 120.5t87 147.5h-187l244 1016q-111 -113 -230.5 -241t-237.5 -261t-228.5 -265t-204.5 -249h-223zM817 1819 l182 45q4 -72 35 -108t99 -36q121 0 184 146l166 -58q-47 -129 -144.5 -193.5t-234.5 -64.5q-123 0 -202 69t-85 200z" />
<glyph unicode="&#x48b;" horiz-adv-x="1230" d="M219 315q0 43 5 88.5t20 104.5l135 563h248l-129 -541q-10 -45 -20.5 -94t-10.5 -98q0 -61 27.5 -108.5t111.5 -47.5q68 0 121 25.5t98 73.5q2 23 3 41t4.5 38.5t8.5 45t13 57.5l143 608h248l-153 -643q-10 -43 -17.5 -83t-7.5 -62q0 -63 36 -94t130 -42 q-29 -147 -111 -272t-219 -217l-139 117q66 47 119 106.5t82 136.5q-29 10 -51.5 31t-39.5 49q-47 -43 -129.5 -84t-193.5 -41q-92 0 -154.5 27t-102.5 73t-57.5 108.5t-17.5 133.5zM549 1499l182 45q4 -72 35 -107.5t98 -35.5q121 0 185 145l165 -57q-47 -129 -144 -193.5 t-234 -64.5q-123 0 -202 68.5t-85 199.5z" />
<glyph unicode="&#x48c;" horiz-adv-x="1300" d="M201 27l256 1058h-166l43 189h166l35 145h260l-35 -145h239l-45 -189h-241l-41 -176q35 2 64.5 2h68.5q274 0 397 -98t123 -285q0 -147 -58.5 -250.5t-157.5 -168t-230 -94t-277 -29.5q-98 0 -208.5 10t-192.5 31zM504 213q23 -4 62.5 -7t84.5 -3q199 0 303.5 77.5 t104.5 225.5q0 190 -293 190h-80t-68 -4z" />
<glyph unicode="&#x48d;" horiz-adv-x="1116" d="M176 31l191 805h-138l39 161h140l30 131h248l-31 -131h301l-38 -161h-304l-41 -177q39 10 91.5 16.5t101.5 6.5q168 0 266 -71.5t98 -225.5q0 -98 -38.5 -174t-110.5 -128t-173 -79t-226 -27q-102 0 -207 12.5t-199 41.5zM459 180q29 -4 64.5 -7t88.5 -3q125 0 202 49 t77 148q0 135 -195 135q-37 0 -84 -5t-82 -16z" />
<glyph unicode="&#x48e;" horiz-adv-x="1239" d="M160 0l334 1399q98 20 201.5 27.5t189.5 7.5q256 0 392 -100.5t136 -286.5q0 -184 -86 -301t-237 -177l75 -211l-180 -75l-86 235q-55 -8 -115.5 -12t-124.5 -4h-120l-121 -502h-258zM590 719h115q61 0 120 6l-63 174l180 78l70 -195q61 33 98 90.5t37 149.5 q0 104 -77 149.5t-210 45.5q-53 0 -93 -2.5t-60 -6.5z" />
<glyph unicode="&#x48f;" horiz-adv-x="1155" d="M59 -379l338 1407q84 31 191.5 49.5t212.5 18.5q106 0 185 -32t131 -87t77 -130t25 -161q0 -190 -79 -348t-227 -252l78 -225l-166 -72l-80 223q-51 -16 -106 -24t-117 -8q-29 0 -62.5 3t-62.5 7l-90 -369h-248zM444 193q20 -4 46 -5.5t49 -1.5q78 0 137 21l-66 190 l166 74l58 -168q68 66 102.5 160t34.5 201q0 45 -10.5 84.5t-35 70.5t-65.5 49.5t-102 18.5q-41 0 -82 -6.5t-70 -12.5z" />
<glyph unicode="&#x490;" horiz-adv-x="1062" d="M158 0l340 1419h622l66 271h244l-119 -490h-606l-289 -1200h-258z" />
<glyph unicode="&#x491;" horiz-adv-x="874" d="M150 0l256 1071h466l64 260h215l-113 -465h-434l-209 -866h-245z" />
<glyph unicode="&#x492;" horiz-adv-x="1110" d="M190 625l46 190h165l146 604h864l-51 -219h-606l-95 -385h312l-45 -190h-312l-149 -625h-260l151 625h-166z" />
<glyph unicode="&#x493;" horiz-adv-x="931" d="M143 244q0 66 18.5 115t51.5 86.5t76 65.5t90 48l-131 62l76 124l243 -114q84 29 143.5 66.5t59.5 107.5q0 49 -38 70.5t-105 21.5q-86 0 -150.5 -20.5t-107.5 -36.5l-11 198q47 20 136.5 40t187.5 20q66 0 126 -15.5t106.5 -47t74 -81t27.5 -114.5q0 -66 -16.5 -115 t-46 -87t-67.5 -65.5t-81 -50.5l141 -63l-76 -125l-252 115q-47 -16 -90 -33t-74.5 -38.5t-50 -48t-18.5 -63.5q0 -51 41 -70.5t127 -19.5q92 0 171 22.5t134 45.5l12 -207q-18 -8 -52 -19.5t-80 -21.5t-102 -17.5t-120 -7.5q-186 0 -279.5 76t-93.5 197z" />
<glyph unicode="&#x494;" horiz-adv-x="1290" d="M158 0l340 1419h868l-53 -219h-608l-78 -326q43 12 102 20.5t119 8.5q117 0 201 -32.5t137 -94t77.5 -148.5t24.5 -196q0 -154 -44 -300t-132 -260t-221 -182.5t-311 -68.5q-78 0 -142 12l54 197q16 -4 36.5 -6t42.5 -2q113 0 200 50t144.5 131t87 183.5t29.5 208.5 q0 154 -66.5 222.5t-201.5 68.5q-109 0 -189 -22l-157 -664h-260z" />
<glyph unicode="&#x495;" horiz-adv-x="1089" d="M145 0l256 1071h691l-50 -205h-442l-55 -229q41 12 88 17t92 5q96 0 164.5 -29.5t113 -81.5t64.5 -123t20 -153q0 -115 -32.5 -230.5t-103 -209.5t-179 -153.5t-258.5 -59.5q-72 0 -127 16l53 181q31 -6 64 -6q90 0 155.5 36.5t108.5 98t63.5 140.5t20.5 165 q0 217 -201 217q-35 0 -75.5 -4t-75.5 -14l-107 -449h-248z" />
<glyph unicode="&#x496;" horiz-adv-x="1935" d="M33 0q78 104 166 209.5t181 205t191.5 189.5t194.5 164l-379 651h297l315 -602l144 602h252l-146 -602q168 156 322.5 305.5t298.5 296.5h313q-186 -186 -369.5 -358t-357.5 -332q86 -109 166 -240t143 -272h203l-143 -596h-246l92 379h-102q-70 193 -161 356.5 t-196 300.5l-159 -657h-250l158 659q-176 -147 -330.5 -306.5t-308.5 -352.5h-289z" />
<glyph unicode="&#x497;" horiz-adv-x="1869" d="M49 12l66 199q29 -16 57.5 -21.5t54.5 -5.5q84 0 142.5 48.5t95.5 123t53.5 164.5t16.5 174t-35 137.5t-101 53.5q-29 0 -49 -5.5t-43 -15.5l-12 193q33 14 80 25.5t94 11.5q137 0 206.5 -100.5t69.5 -274.5v-40t-4 -42h195l104 434h236l-105 -434h177q25 98 68.5 181 t105 144.5t140.5 96.5t173 35q53 0 89 -9.5t77 -29.5l-66 -197q-49 25 -102 25q-86 0 -144.5 -50.5t-94 -126t-52 -164.5t-16.5 -167q0 -193 162 -193q47 0 97 6.5t93 14.5l-121 -500h-219l76 289h-17q-141 0 -212.5 93t-71.5 263q0 47 6 101h-193l-108 -449h-234l107 449 h-176q-25 -100 -67 -186.5t-103.5 -151t-141 -101.5t-178.5 -37q-53 0 -93 8.5t-83 30.5z" />
<glyph unicode="&#x498;" horiz-adv-x="1155" d="M72 80l118 205q63 -35 147.5 -63.5t194.5 -28.5q174 0 271.5 68.5t97.5 189.5q0 98 -75.5 141t-204.5 43h-191l53 213h162q61 0 122.5 13t112 42t82 75t31.5 112t-49 102.5t-149 36.5q-98 0 -185.5 -27.5t-154.5 -62.5l-35 213q74 41 186.5 69.5t237.5 28.5 q213 0 314.5 -92t101.5 -234q0 -135 -80 -230t-209 -140q102 -47 149 -121t47 -170q0 -94 -34.5 -177t-104.5 -148.5t-172 -107.5t-240 -55q-12 -16 -22 -32.5t-16 -26.5q86 -45 86 -131q0 -53 -20.5 -91t-56.5 -63.5t-83 -38t-101 -12.5q-115 0 -186 39l59 139 q23 -10 52.5 -17t64.5 -7q37 0 59.5 12t22.5 37t-16.5 38t-50.5 29l-27 13q14 23 33.5 51.5t38.5 56.5q-125 6 -225.5 40t-155.5 69z" />
<glyph unicode="&#x499;" horiz-adv-x="929" d="M80 37l74 199q39 -23 106.5 -39.5t163.5 -16.5q45 0 90 8.5t82 26.5t60.5 50t23.5 81q0 35 -16.5 56.5t-43 34t-58.5 16.5t-64 4h-150l45 184h152q84 0 144.5 37t60.5 115q0 59 -45.5 79.5t-116.5 20.5q-39 0 -80 -6t-78 -13.5t-65.5 -16.5t-42.5 -15l-15 198 q55 20 142.5 38t191.5 18q172 0 262 -72t90 -193q0 -80 -52 -154.5t-157 -115.5q141 -63 142 -211q0 -84 -31 -146.5t-83 -107.5t-123 -72.5t-148 -39.5q-14 -18 -25.5 -36t-21.5 -32q86 -43 86 -131q0 -53 -20.5 -91t-56.5 -63.5t-83 -38t-101 -12.5q-113 0 -186 39l62 139 q23 -10 52 -17t64 -7q37 0 58.5 12t21.5 37t-15.5 38t-49.5 29l-27 13q12 23 32.5 52.5t41.5 57.5q-92 4 -167 20.5t-126 43.5z" />
<glyph unicode="&#x49a;" horiz-adv-x="1355" d="M160 0l340 1419h258l-137 -567q84 68 174 143.5t176 151.5t162.5 145.5t136.5 126.5h313q-84 -78 -179 -164t-194.5 -175t-201 -176t-199.5 -165q96 -96 194.5 -233t184.5 -289h225l-143 -596h-246l92 379h-104q-41 82 -91.5 171t-106.5 174t-118.5 161t-124.5 133 l-153 -639h-258z" />
<glyph unicode="&#x49b;" horiz-adv-x="1208" d="M150 0l256 1071h247l-98 -414q66 49 133.5 106.5t129 113t112.5 106.5l88 88h299q-51 -57 -115.5 -120.5t-136.5 -129t-148.5 -130t-150.5 -120.5q70 -70 137.5 -167t122.5 -201h168l-121 -500h-219l74 297h-80q-59 135 -146.5 270.5t-185.5 227.5l-121 -498h-245z" />
<glyph unicode="&#x49c;" horiz-adv-x="1478" d="M160 0l340 1419h258l-142 -588h111l74 310h172l-74 -305q74 70 148.5 146.5t146.5 152t138.5 148.5t121.5 136h295q-72 -80 -154 -168t-169 -177t-177 -177t-176 -170q209 -281 371 -727h-275q-29 82 -64.5 171t-76.5 175t-86 162t-90 131l-72 -303h-172l74 305h-111 l-153 -641h-258z" />
<glyph unicode="&#x49d;" horiz-adv-x="1339" d="M150 0l256 1071h247l-104 -434h102l58 242h149l-57 -236q55 53 113.5 112.5t112.5 116t101.5 108.5t81.5 91h281q-45 -51 -108.5 -118.5t-133 -138.5t-139.5 -137.5t-125 -113.5q43 -49 87 -119.5t86 -147.5t77 -155t57 -141h-268q-23 59 -52.5 126t-63.5 131.5 t-70.5 123.5t-73.5 106l-57 -239h-150l57 237h-102l-117 -485h-245z" />
<glyph unicode="&#x49e;" horiz-adv-x="1388" d="M197 0l270 1130h-164l41 175h164l39 159h258l-39 -159h182l-41 -175h-182l-74 -311q86 68 184.5 148t193.5 160.5t181 156.5t150 135h313q-88 -86 -187.5 -176t-204.5 -180t-214 -178t-215 -170q66 -66 133.5 -147t132 -174t123.5 -193.5t109 -200.5h-285q-43 82 -95 168 t-111.5 168t-123 155.5t-131.5 129.5l-149 -621h-258z" />
<glyph unicode="&#x49f;" horiz-adv-x="1208" d="M174 0l211 887h-145l32 139h148l29 117h247l-28 -117h149l-33 -139h-151l-60 -250q76 53 151 113.5t141.5 119t120.5 111.5t89 90h299q-51 -57 -118.5 -122.5t-143.5 -133t-155.5 -133.5t-157.5 -121q53 -51 108.5 -119.5t106.5 -144.5t94 -152.5t72 -144.5h-279 q-31 68 -69.5 136.5t-85 133t-98.5 123t-107 105.5l-121 -498h-246z" />
<glyph unicode="&#x4a0;" horiz-adv-x="1515" d="M332 1200l51 219h594l-139 -567q84 68 174 143.5t176 151.5t162.5 145.5t136.5 126.5h313q-84 -78 -179 -164t-194.5 -175t-201 -176t-199.5 -165q63 -66 131 -149.5t131.5 -180t120.5 -201t104 -208.5h-284q-41 82 -91.5 171t-106.5 174t-118.5 161t-124.5 133 l-153 -639h-258l287 1200h-332z" />
<glyph unicode="&#x4a1;" horiz-adv-x="1282" d="M240 879l47 192h501l-102 -414q66 49 132.5 106.5t128 113t113.5 106.5t89 88h299q-53 -57 -117.5 -120.5t-136.5 -129t-148.5 -130t-150.5 -120.5q51 -53 103.5 -121.5t99.5 -145.5t87 -155.5t66 -148.5h-274q-57 135 -144.5 270.5t-185.5 227.5l-121 -498h-247l215 879 h-254z" />
<glyph unicode="&#x4a2;" horiz-adv-x="1470" d="M160 0l340 1419h258l-137 -569h581l137 569h258l-288 -1202h204l-143 -596h-246l93 379h-218l152 631h-582l-151 -631h-258z" />
<glyph unicode="&#x4a3;" horiz-adv-x="1210" d="M150 0l258 1071h247l-100 -418h389l100 418h248l-211 -868h168l-123 -500h-219l74 297h-195l107 449h-389l-107 -449h-247z" />
<glyph unicode="&#x4a4;" horiz-adv-x="1646" d="M160 0l340 1419h258l-137 -569h581l137 569h609l-54 -221h-350l-287 -1198h-258l152 631h-582l-151 -631h-258z" />
<glyph unicode="&#x4a5;" horiz-adv-x="1349" d="M150 0l258 1071h247l-100 -418h389l100 418h508l-47 -192h-260l-211 -879h-248l107 449h-389l-107 -449h-247z" />
<glyph unicode="&#x4a6;" horiz-adv-x="2113" d="M160 0l340 1419h1063l-133 -551q53 16 118.5 25.5t132.5 9.5q117 0 201 -32.5t137.5 -94t78 -148.5t24.5 -196q0 -154 -44 -300t-132 -260t-222.5 -182.5t-312.5 -68.5q-78 0 -139 12l53 197q16 -4 36.5 -6t43.5 -2q113 0 199 50t144 131t87 183.5t29 208.5 q0 154 -69 222.5t-198 68.5q-66 0 -121 -7t-96 -20l-159 -659h-258l288 1200h-544l-289 -1200h-258z" />
<glyph unicode="&#x4a7;" horiz-adv-x="1716" d="M150 0l245 1026q82 25 187.5 46.5t230.5 21.5q80 0 146.5 -19.5t114.5 -61.5t76 -106.5t28 -152.5q0 -29 -3.5 -57.5t-7.5 -61.5q35 10 87.5 17t99.5 7q94 0 162.5 -29.5t113.5 -81.5t65.5 -123t20.5 -153q0 -115 -32.5 -230.5t-103.5 -209.5t-179.5 -153.5t-259.5 -59.5 q-70 0 -125 16l51 181q31 -6 66 -6q88 0 153.5 36.5t108.5 98t63.5 140.5t20.5 165q0 217 -201 217q-37 0 -80 -5t-74 -13l-106 -449h-248l141 594q8 31 13.5 67.5t5.5 65.5q0 68 -37 113t-137 45q-41 0 -80 -5.5t-72 -13.5l-207 -866h-247z" />
<glyph unicode="&#x4a8;" horiz-adv-x="1572" d="M248 543q0 190 60.5 356t174 289t275.5 193.5t362 70.5q98 0 186.5 -14.5t159.5 -42.5l-98 -207q-57 20 -120.5 31.5t-131.5 11.5q-127 0 -236.5 -50.5t-190.5 -142.5t-127 -223t-46 -291q0 -139 53.5 -219t153.5 -106v59q0 160 36 303.5t107.5 252t177 172t244.5 63.5 q92 0 158.5 -27t111 -75t64.5 -111.5t20 -137.5q0 -117 -39.5 -232.5t-117.5 -212.5t-194.5 -168t-272.5 -97q18 -47 56 -78t87 -49.5t104.5 -28.5t108.5 -12l-76 -199q-96 2 -182 26.5t-155.5 68.5t-121 109.5t-77.5 149.5q-115 8 -209 49.5t-161.5 113t-105.5 173 t-38 232.5zM971 213.5q0 -14.5 2 -29.5q104 14 184 60.5t134.5 112t82 144.5t27.5 161q0 72 -32 117.5t-103 45.5q-80 0 -135.5 -57t-91 -144t-52 -189.5t-16.5 -192.5v-28.5z" />
<glyph unicode="&#x4a9;" horiz-adv-x="1265" d="M209 403q0 152 48 279t135 219t207 144.5t261 52.5q61 0 117.5 -9.5t83.5 -19.5l-80 -188q-18 6 -53 13t-76 7q-92 0 -169 -40t-132 -107.5t-86 -157.5t-31 -193q0 -115 37 -167t113 -72q-2 8 -2 16v19q0 125 31.5 230.5t88 183t134 121.5t172.5 44q145 0 211.5 -72.5 t66.5 -183.5q0 -92 -30.5 -179t-89 -157.5t-143.5 -122t-192 -73.5q20 -31 52 -52.5t71 -35t80 -20.5t80 -11l-70 -172q-68 2 -134 20.5t-123.5 52t-101.5 85t-69 120.5q-92 6 -166.5 39t-129 87.5t-83 130t-28.5 169.5zM780 154q70 12 127.5 44.5t97 80t61 102.5t21.5 111 q0 47 -20.5 75.5t-73.5 28.5q-55 0 -95 -38t-65.5 -98.5t-39 -134t-13.5 -147.5v-24z" />
<glyph unicode="&#x4aa;" horiz-adv-x="1241" d="M248 547q0 172 57 334.5t166 289.5t264.5 204t351.5 77q129 0 224.5 -28.5t167.5 -69.5l-99 -207q-66 39 -140.5 60.5t-168.5 21.5q-129 0 -231.5 -57.5t-175 -150.5t-110.5 -212t-38 -242q0 -190 83 -281t243 -91q123 0 209 27.5t147 56.5l31 -218q-66 -35 -167 -62.5 t-245 -29.5q-25 -30 -37 -53q86 -43 86 -131q0 -53 -20.5 -91t-56 -63.5t-83 -38t-100.5 -12.5q-113 0 -186 39l61 139q23 -10 52.5 -17t64.5 -7q37 0 58.5 12t21.5 37t-15.5 38t-50.5 29l-26 13q14 25 35.5 57.5t42.5 61.5q-199 39 -307.5 187t-108.5 378z" />
<glyph unicode="&#x4ab;" horiz-adv-x="940" d="M199 406q0 139 44 265t126 221t200.5 150.5t270.5 55.5q80 0 146.5 -13.5t125.5 -40.5l-88 -198q-37 16 -82 28.5t-111 12.5q-88 0 -158.5 -36t-119.5 -97.5t-75.5 -145.5t-26.5 -178q0 -53 11 -97t36.5 -78t70.5 -52.5t113 -18.5q70 0 134.5 18.5t98.5 37.5l21 -203 q-47 -23 -120 -42.5t-165 -23.5l-39 -55q86 -43 86 -131q0 -53 -20.5 -91t-56 -63.5t-82.5 -38t-101 -12.5q-113 0 -186 39l61 139q23 -10 52.5 -17t64.5 -7q37 0 58.5 12t21.5 37t-15.5 38t-50.5 29l-26 13q14 25 36.5 59.5t45.5 63.5q-156 37 -228.5 151.5t-72.5 268.5z " />
<glyph unicode="&#x4ac;" horiz-adv-x="1191" d="M338 1202l51 217h1104l-53 -217h-422l-238 -985h221l-143 -596h-246l93 379h-234l289 1202h-422z" />
<glyph unicode="&#x4ad;" horiz-adv-x="1802" d="M150 0l245 1026q82 25 184.5 46.5t225.5 21.5q92 0 154.5 -27t105.5 -76q59 35 144 69t194 34q94 0 159.5 -27t106.5 -74t59.5 -111.5t18.5 -140.5q0 -84 -23 -178l-86 -360h170l-122 -500h-220l74 297h-199l127 537q10 39 19.5 86t9.5 92q0 33 -7 64.5t-25.5 54 t-50.5 37t-81 14.5q-53 0 -104 -20.5t-86 -43.5q8 -39 8 -84q0 -84 -23 -174l-135 -563h-248l127 537q10 37 19.5 85t9.5 95q0 68 -31.5 118t-119.5 50q-41 0 -78 -5.5t-68 -13.5l-207 -866h-247z" />
<glyph unicode="&#x4ae;" horiz-adv-x="1218" d="M330 1419h274q35 -158 80 -315t98 -311q127 154 247 308t224 318h291q-80 -113 -159.5 -219t-162.5 -211.5t-171 -210t-183 -213.5l-135 -565h-258l135 565q-84 215 -152.5 427t-127.5 427z" />
<glyph unicode="&#x4af;" horiz-adv-x="1026" d="M264 1071h260q0 -78 3 -185.5t11.5 -219t18.5 -214t27 -169.5q45 59 97 144t104.5 186.5t102.5 218t91 239.5h260q-61 -166 -137 -317.5t-155 -282.5t-156.5 -238.5t-143.5 -187.5l-102 -424h-248l104 436q-51 213 -89 468t-48 546z" />
<glyph unicode="&#x4b0;" horiz-adv-x="1218" d="M303 397l41 189h258q-82 209 -148.5 415.5t-123.5 417.5h274q35 -158 80 -315t98 -311q127 154 247 308t224 318h291q-158 -219 -315.5 -420.5t-341.5 -412.5h256l-41 -189h-275l-94 -397h-258l94 397h-266z" />
<glyph unicode="&#x4b1;" horiz-adv-x="1026" d="M137 0l39 164h201q-43 197 -73 424t-40 483h260q0 -78 3 -185.5t11.5 -219t18.5 -214t27 -169.5q45 59 97 144t104.5 186.5t102.5 218t91 239.5h260q-51 -139 -112.5 -267t-126 -244t-131 -215t-128.5 -181h199l-41 -164h-264l-90 -379h-248l90 379h-250z" />
<glyph unicode="&#x4b2;" horiz-adv-x="1349" d="M25 0l649 764l-289 655h285l192 -481q102 119 199.5 242t177.5 239h289q-59 -84 -127 -171t-139.5 -174t-144.5 -172t-142 -163q59 -135 112.5 -263t100.5 -259h203l-144 -596h-246l93 379h-105q-25 80 -49.5 150.5t-50 136t-52 129t-57.5 131.5l-456 -547h-299z" />
<glyph unicode="&#x4b3;" horiz-adv-x="1097" d="M18 0l490 549l-264 522h260l170 -360q78 94 145.5 184t122.5 176h256q-86 -127 -190.5 -259t-227.5 -267q47 -90 88 -174t78 -168h184l-122 -500h-220l74 297h-88q-33 96 -75 192.5t-85 182.5l-325 -375h-271z" />
<glyph unicode="&#x4b4;" horiz-adv-x="1716" d="M332 1202l51 217h958l-53 -217h-342l-237 -985h585l289 1202h260l-289 -1202h211l-143 -596h-246l92 379h-1069l287 1202h-354z" />
<glyph unicode="&#x4b5;" horiz-adv-x="1419" d="M240 864l49 207h710l-51 -207h-221l-78 -334q-10 -39 -20.5 -90t-10.5 -94q0 -33 6.5 -62.5t24 -52t48 -36t79.5 -13.5q72 0 131.5 25.5t106.5 73.5q6 88 28 182l144 608h248l-154 -645q-8 -33 -16.5 -74t-8.5 -71q0 -27 6.5 -48.5t22.5 -39t47 -28.5t78 -18l-115 -450 h-219l80 321q-33 10 -55.5 33t-36.5 47q-51 -45 -138 -85t-204 -40q-98 0 -165 27t-107.5 74t-59 109.5t-18.5 133.5q0 47 7 95.5t17 95.5l84 356h-239z" />
<glyph unicode="&#x4b6;" horiz-adv-x="1345" d="M328 825q0 37 5 87.5t19 107.5l99 399h258l-101 -413q-18 -78 -18 -134q0 -102 59.5 -142t167.5 -40q63 0 126 11.5t104 25.5l165 692h261l-291 -1202h213l-144 -596h-245l92 379h-226l121 506q-47 -14 -113.5 -24.5t-119.5 -10.5q-211 0 -321.5 90t-110.5 264z" />
<glyph unicode="&#x4b7;" horiz-adv-x="1112" d="M240 637q0 63 18 135l72 299h248l-80 -326q-10 -41 -11 -69q0 -68 46.5 -92.5t123.5 -24.5q53 0 98.5 9.5t73.5 17.5l117 485h248l-211 -868h172l-123 -500h-219l74 297h-199l92 385q-35 -10 -86 -18.5t-104 -8.5q-162 0 -256 68t-94 211z" />
<glyph unicode="&#x4b8;" horiz-adv-x="1316" d="M328 825q0 37 5 87.5t19 107.5l99 399h258l-101 -413q-18 -78 -18 -134q0 -139 125 -170l59 246h176l-61 -256q106 10 176 33l166 694h258l-340 -1419h-260l123 506q-35 -10 -83 -19.5t-93 -13.5l-58 -244h-176l60 248q-166 20 -250 108.5t-84 239.5z" />
<glyph unicode="&#x4b9;" horiz-adv-x="1091" d="M219 637q0 63 19 135l71 299h248l-80 -330q-10 -41 -10 -69q0 -90 88 -109l41 172h149l-43 -178q39 4 70 11t53 14l117 489h248l-258 -1071h-248l94 385q-23 -6 -54.5 -12.5t-66.5 -10.5l-43 -182h-149l43 180q-137 14 -213 81t-76 196z" />
<glyph unicode="&#x4ba;" horiz-adv-x="1310" d="M160 0l340 1419h260l-121 -499q45 14 113.5 24t124.5 10q205 0 319.5 -87t114.5 -265q0 -66 -23 -160l-106 -442h-258l110 457q6 29 10.5 55.5t4.5 50.5q0 92 -59.5 131t-182.5 39q-59 0 -119.5 -9t-101.5 -22l-168 -702h-258z" />
<glyph unicode="&#x4bb;" horiz-adv-x="1153" d="M150 0l370 1548l258 41l-127 -526q41 10 89 19.5t96 9.5q90 0 154.5 -26t106.5 -71t61.5 -108.5t19.5 -136.5q0 -88 -25 -187l-135 -563h-248l129 537q10 47 20.5 96t10.5 92q0 68 -36 114t-136 46q-41 0 -82 -7.5t-74 -17.5l-205 -860h-247z" />
<glyph unicode="&#x4bc;" horiz-adv-x="1742" d="M252 909q0 49 13.5 96.5t39.5 102.5l195 -27q-10 -27 -19.5 -60.5t-9.5 -59.5q0 -47 33 -70t98 -33q41 137 113.5 248t170 186.5t216.5 116.5t254 41q233 0 359 -124t126 -347q0 -70 -14.5 -159t-44.5 -183h-961q-6 -43 -6 -82q0 -96 24.5 -164.5t69.5 -111.5 t109.5 -63.5t142.5 -20.5q117 0 217.5 28.5t169.5 59.5l19 -211q-66 -41 -183.5 -72t-259.5 -31q-143 0 -249.5 41t-177 114t-106.5 172t-36 214q0 72 6 139q-152 20 -229.5 79.5t-79.5 180.5zM864 848h711q6 29 11 62.5t5 74.5q0 111 -64.5 178.5t-193.5 67.5 q-90 0 -163.5 -31t-132 -83t-102.5 -121.5t-71 -147.5z" />
<glyph unicode="&#x4bd;" horiz-adv-x="1325" d="M188 684q0 41 11.5 86t29.5 84l181 -23q-10 -20 -18.5 -50.5t-8.5 -57.5q0 -111 96 -131q27 104 81 196.5t132 161t177.5 108.5t215.5 40q156 0 242 -80t86 -205q0 -129 -63.5 -209t-165 -125t-229.5 -61.5t-259 -20.5q-2 -12 -2 -28q0 -186 236 -187q139 0 278 58 l21 -201q-49 -23 -139.5 -45.5t-204.5 -22.5q-115 0 -197 33t-134 90.5t-76.5 132t-24.5 160.5v29q-131 29 -198 96.5t-67 171.5zM713 575q246 8 357.5 59.5t111.5 153.5q0 41 -29.5 74t-103.5 33q-61 0 -116.5 -24.5t-98.5 -67.5t-75 -101.5t-46 -126.5z" />
<glyph unicode="&#x4be;" horiz-adv-x="1742" d="M252 909q0 49 13.5 96.5t39.5 102.5l195 -27q-10 -27 -19.5 -60.5t-9.5 -59.5q0 -47 33 -70t98 -33q41 137 113.5 248t170 186.5t216.5 116.5t254 41q233 0 359 -124t126 -347q0 -70 -14.5 -159t-44.5 -183h-961q-6 -43 -6 -82q0 -96 24.5 -164.5t69.5 -111.5 t109.5 -63.5t142.5 -20.5q117 0 217.5 28.5t169.5 59.5l19 -211q-63 -39 -172 -69t-240 -34l-82 -348h-246l91 375q-184 53 -273.5 190.5t-89.5 323.5q0 72 6 139q-152 20 -229.5 79.5t-79.5 180.5zM864 848h711q6 29 11 62.5t5 74.5q0 111 -64.5 178.5t-193.5 67.5 q-90 0 -163.5 -31t-132 -83t-102.5 -121.5t-71 -147.5z" />
<glyph unicode="&#x4bf;" horiz-adv-x="1325" d="M188 684q0 41 11.5 86t29.5 84l181 -23q-10 -20 -18.5 -50.5t-8.5 -57.5q0 -111 96 -131q27 104 81 196.5t132 161t177.5 108.5t215.5 40q156 0 242 -80t86 -205q0 -129 -63.5 -209t-165 -125t-229.5 -61.5t-259 -20.5q-2 -12 -2 -28q0 -186 236 -187q139 0 278 58 l21 -201q-43 -20 -116 -39.5t-165 -26.5l-65 -276h-219l69 293q-147 39 -213.5 147.5t-66.5 249.5v29q-131 29 -198 96.5t-67 171.5zM713 575q246 8 357.5 59.5t111.5 153.5q0 41 -29.5 74t-103.5 33q-61 0 -116.5 -24.5t-98.5 -67.5t-75 -101.5t-46 -126.5z" />
<glyph unicode="&#x4c0;" horiz-adv-x="585" d="M160 0l340 1419h258l-340 -1419h-258z" />
<glyph unicode="&#x4c1;" horiz-adv-x="1880" d="M12 0q78 104 166 209.5t181.5 205t191.5 189.5t194 164l-378 651h297l315 -602l143 602h252l-145 -602q168 156 322.5 305.5t297.5 296.5h314q-186 -186 -369.5 -358t-357.5 -332q123 -150 225 -340t172 -389h-285q-70 193 -161 356.5t-195 300.5l-160 -657h-250l158 659 q-176 -147 -330.5 -306.5t-308.5 -352.5h-289zM995 1814l183 45q4 -72 34.5 -107.5t98.5 -35.5q121 0 184 145l166 -57q-47 -129 -144.5 -193.5t-234.5 -64.5q-123 0 -202 68.5t-85 199.5z" />
<glyph unicode="&#x4c2;" horiz-adv-x="1832" d="M47 12l66 199q29 -16 57.5 -21.5t54.5 -5.5q84 0 142.5 48.5t95.5 123t53 164.5t16 174q0 29 -6 63t-21.5 62.5t-42 47t-69.5 18.5q-23 0 -47 -6.5t-41 -14.5l-12 193q33 14 80 25.5t94 11.5q137 0 206.5 -100.5t69.5 -274.5v-40t-4 -42h195l104 434h236l-105 -434h177 q27 98 70.5 181t105 144.5t139.5 96.5t172 35q53 0 89 -9.5t77 -29.5l-66 -197q-49 25 -102 25q-86 0 -144.5 -50.5t-94.5 -126t-52 -164.5t-16 -167q0 -88 33.5 -140.5t107.5 -52.5q37 0 70.5 8.5t62.5 18.5l12 -195q-37 -16 -87 -28.5t-103 -12.5q-150 0 -229.5 101.5 t-79.5 273.5q0 47 6 101h-193l-108 -449h-234l107 449h-176q-25 -100 -67 -186.5t-103.5 -151t-141 -101.5t-178.5 -37q-53 0 -93 8.5t-83 30.5zM899 1499l183 45q4 -72 34.5 -107.5t98.5 -35.5q121 0 184 145l166 -57q-47 -129 -144.5 -193.5t-234.5 -64.5 q-123 0 -202 68.5t-85 199.5z" />
<glyph unicode="&#x4c3;" horiz-adv-x="1302" d="M160 0l340 1419h254l-148 -612q86 72 175 154.5t174 164.5t162 158t136 135h310q-147 -147 -316.5 -304t-343.5 -304q82 -12 151.5 -45t120 -87t78 -131t27.5 -177q0 -145 -45 -280.5t-134 -240t-220 -167t-301 -62.5q-35 0 -70 2t-66 8l54 199q16 -2 34.5 -4t42.5 -2 q104 0 187.5 42t142 112.5t89 162.5t30.5 195q0 92 -34 148.5t-85 87t-109.5 40t-107.5 9.5q-23 0 -59.5 -2.5t-67.5 -8.5l-147 -610h-254z" />
<glyph unicode="&#x4c4;" horiz-adv-x="1134" d="M150 0l256 1071h247l-100 -422q63 51 131 109.5t130.5 115t115.5 108.5t92 89h297q-96 -102 -225 -221t-267 -225q143 -43 207 -147.5t64 -246.5q0 -104 -32 -212.5t-100.5 -197.5t-175 -145.5t-253.5 -56.5q-70 0 -125 16l51 181q31 -6 65 -6q86 0 148.5 34.5t104.5 91 t61.5 130t19.5 151.5q0 121 -69.5 187.5t-176.5 66.5q-31 0 -55 -2t-53 -6l-113 -463h-245z" />
<glyph unicode="&#x4c5;" horiz-adv-x="1427" d="M39 201q141 14 239.5 101t172 241.5t130 375t115.5 500.5h858l-286 -1200h180q-29 -180 -123 -334.5t-258 -271.5l-143 119q66 53 123 120.5t88 147.5h-177l287 1198h-348q-59 -256 -121.5 -473t-154.5 -379q-37 -68 -87.5 -131t-117 -113.5t-153.5 -84t-200 -42.5z" />
<glyph unicode="&#x4c6;" horiz-adv-x="1214" d="M74 186q86 4 149.5 48.5t109.5 114t77.5 158.5t54 186.5t40 194.5t36.5 183h755l-211 -868h164q-23 -176 -111.5 -314.5t-228.5 -230.5l-139 117q61 45 112.5 100t80.5 125h-172l206 866h-264q-47 -184 -92 -342.5t-115.5 -275.5t-177 -187.5t-272.5 -78.5z" />
<glyph unicode="&#x4c7;" horiz-adv-x="1425" d="M160 0l340 1419h258l-137 -569h581l137 569h258l-331 -1380q-27 -109 -59.5 -188.5t-84 -132t-123 -77t-176.5 -24.5q-41 0 -82 8t-75 21l73 196q20 -8 44 -13t51 -5q74 0 110.5 53t65.5 168l141 586h-582l-151 -631h-258z" />
<glyph unicode="&#x4c8;" horiz-adv-x="1193" d="M150 0l258 1071h247l-100 -418h389l100 418h248l-256 -1059q-27 -111 -59.5 -185.5t-78.5 -121.5t-108.5 -67.5t-148.5 -20.5q-41 0 -85 9t-73 20l64 194q16 -6 36.5 -11t43.5 -5q74 0 106.5 48t52.5 128l107 449h-389l-107 -449h-247z" />
<glyph unicode="&#x4c9;" horiz-adv-x="1470" d="M160 0l340 1419h258l-137 -569h581l137 569h258l-286 -1200h172q-29 -180 -123 -334.5t-258 -271.5l-144 119q66 53 123.5 120.5t87.5 147.5h-170l152 631h-582l-151 -631h-258z" />
<glyph unicode="&#x4ca;" horiz-adv-x="1210" d="M150 0l258 1071h247l-100 -418h389l100 418h248l-209 -868h162q-23 -176 -112 -314.5t-228 -230.5l-139 117q61 45 112.5 100t79.5 125h-172l107 449h-389l-107 -449h-247z" />
<glyph unicode="&#x4cb;" horiz-adv-x="1300" d="M328 825q0 37 5 87.5t19 107.5l99 399h258l-101 -413q-18 -78 -18 -134q0 -102 59.5 -142t167.5 -40q63 0 126 11.5t104 25.5l165 692h261l-343 -1419h-225l-90 -379h-246l136 565h213l75 320q-47 -14 -113.5 -24.5t-119.5 -10.5q-211 0 -321.5 90t-110.5 264z" />
<glyph unicode="&#x4cc;" horiz-adv-x="1069" d="M219 662q0 37 8.5 80.5t18.5 91.5l59 237h248l-76 -303q-10 -41 -10 -70q0 -68 47 -92t123 -24q51 0 97 8t75 18l111 463h247l-258 -1071h-200l-74 -297h-219l123 496h170l51 209q-35 -10 -86 -18.5t-105 -8.5q-162 0 -256 67.5t-94 213.5z" />
<glyph unicode="&#x4cd;" horiz-adv-x="1863" d="M125 0q49 176 104.5 364.5t113.5 374t115.5 359.5t110.5 321h242q18 -72 42 -185.5t47.5 -242.5t47 -260t41.5 -237q70 109 155 237.5t170 255.5t163.5 240.5t136.5 191.5h244q-12 -133 -32 -279.5t-42.5 -300t-49 -311t-55.5 -309.5h183q-29 -180 -123 -334.5 t-258 -271.5l-144 119q66 53 123.5 120.5t87.5 147.5h-166q53 248 102.5 509t90.5 517q-35 -49 -80 -118.5t-96 -146.5t-104.5 -159t-103.5 -158.5t-93 -142t-74 -113.5h-199q-10 68 -28.5 178.5t-41 232.5t-44 237.5t-37.5 191.5q-84 -256 -157 -519t-138 -509h-254z" />
<glyph unicode="&#x4ce;" horiz-adv-x="1517" d="M119 0q33 119 75 258t87 281.5t91 278.5t87 253h223q31 -133 64.5 -310t70.5 -380q141 229 256 401t201 289h223q-16 -186 -43 -413.5t-68 -454.5h162q-23 -176 -110.5 -314.5t-227.5 -230.5l-141 117q63 45 114.5 100t80.5 125h-160q37 162 75 350.5t68 370.5 q-47 -68 -98 -145.5t-103.5 -156.5t-99.5 -152.5t-84 -133.5h-182q-10 57 -24.5 132t-30 155t-30.5 158.5t-30 146.5q-59 -182 -114.5 -373.5t-98.5 -351.5h-233z" />
<glyph unicode="&#x4cf;" horiz-adv-x="552" d="M150 0l339 1419h248l-342 -1419h-245z" />
<glyph unicode="&#x4d0;" horiz-adv-x="1343" d="M14 0q125 217 239 409.5t221.5 366.5t213 333t211.5 310h240q66 -305 112.5 -666.5t89.5 -752.5h-260q-6 86 -13 171t-15 165h-576q-47 -80 -93 -163t-93 -173h-277zM588 541h444q-12 145 -29 297.5t-40 310.5q-78 -121 -173.5 -271.5t-201.5 -336.5zM753 1814l183 45 q4 -72 34.5 -107.5t98.5 -35.5q121 0 184 145l166 -57q-47 -129 -144.5 -193.5t-234.5 -64.5q-123 0 -202 68.5t-85 199.5z" />
<glyph unicode="&#x4d1;" horiz-adv-x="1142" d="M195 387q0 150 53 279t148.5 223t226.5 148.5t286 54.5q80 0 161 -13.5t163 -50.5l-148 -612q-6 -23 -12 -74t-6 -96q0 -59 10 -115.5t33 -114.5l-221 -32q-25 49 -39 104q-51 -45 -126 -81t-169 -36q-96 0 -164.5 32t-111.5 88t-63.5 132t-20.5 164zM440 408 q0 -47 8.5 -88t28 -72t52 -49.5t83.5 -18.5q66 0 116 28t93 75q2 53 9.5 100t19.5 94l100 402q-39 8 -88 8q-92 0 -170 -40t-134 -106.5t-87 -152.5t-31 -180zM612 1499l183 45q4 -72 34.5 -107.5t98.5 -35.5q121 0 184 145l166 -57q-47 -129 -144.5 -193.5t-234.5 -64.5 q-123 0 -202 68.5t-85 199.5z" />
<glyph unicode="&#x4d2;" horiz-adv-x="1343" d="M14 0q125 217 239 409.5t221.5 366.5t213 333t211.5 310h240q66 -305 112.5 -666.5t89.5 -752.5h-260q-6 86 -13 171t-15 165h-576q-47 -80 -93 -163t-93 -173h-277zM588 541h444q-12 145 -29 297.5t-40 310.5q-78 -121 -173.5 -271.5t-201.5 -336.5zM735 1690 q0 35 13.5 64.5t33.5 50t47 32t53 11.5q53 0 89 -34t36 -91q0 -33 -13 -60.5t-34.5 -48t-48 -32t-53.5 -11.5q-53 0 -88 33t-35 86zM1157 1690q0 35 13 64.5t33.5 50t47.5 32t53 11.5q53 0 89 -34t36 -91q0 -33 -13 -60.5t-34.5 -48t-48 -32t-53.5 -11.5q-53 0 -88 33 t-35 86z" />
<glyph unicode="&#x4d3;" horiz-adv-x="1142" d="M195 387q0 150 53 279t148.5 223t226.5 148.5t286 54.5q80 0 161 -13.5t163 -50.5l-148 -612q-6 -23 -12 -74t-6 -96q0 -59 10 -115.5t33 -114.5l-221 -32q-25 49 -39 104q-51 -45 -126 -81t-169 -36q-96 0 -164.5 32t-111.5 88t-63.5 132t-20.5 164zM440 408 q0 -47 8.5 -88t28 -72t52 -49.5t83.5 -18.5q66 0 116 28t93 75q2 53 9.5 100t19.5 94l100 402q-39 8 -88 8q-92 0 -170 -40t-134 -106.5t-87 -152.5t-31 -180zM549 1366q0 35 13.5 64.5t33.5 50t47 32t53 11.5q53 0 89 -34t36 -91q0 -33 -13 -60.5t-34.5 -48t-48 -32 t-53.5 -11.5q-53 0 -88 33t-35 86zM971 1366q0 35 13 64.5t33.5 50t47.5 32t53 11.5q53 0 89 -34t36 -91q0 -33 -13 -60.5t-34.5 -48t-48 -32t-53.5 -11.5q-53 0 -88 33t-35 86z" />
<glyph unicode="&#x4d4;" horiz-adv-x="1947" d="M4 0q168 221 318.5 412.5t294 363.5t284.5 331t293 312h963l-54 -217h-608l-84 -354h537l-52 -211h-534l-102 -420h655l-51 -217h-903l83 350h-501q-66 -86 -133.5 -176t-126.5 -174h-279zM700 557h394l151 629q-61 -66 -131 -142.5t-140.5 -159.5t-140 -166t-133.5 -161 z" />
<glyph unicode="&#x4d5;" horiz-adv-x="1722" d="M152 242q0 133 64.5 215t166.5 128t230 62.5t259 18.5q2 12 2 28q0 178 -235 178q-139 0 -279 -57l-20 201q49 23 139 45t205 22q135 0 225 -52t138 -134q82 92 191.5 146.5t244.5 54.5q156 0 241.5 -80t85.5 -205q0 -129 -63.5 -209t-164.5 -125t-229 -61.5t-259 -20.5 q-2 -12 -2 -28q0 -186 235 -187q139 0 279 58l20 -201q-49 -23 -139 -45.5t-205 -22.5q-141 0 -231 53.5t-140 137.5q-80 -92 -189.5 -148.5t-242.5 -56.5q-156 0 -241.5 80t-85.5 205zM383 266q0 -41 29.5 -73.5t103.5 -32.5q61 0 117.5 24.5t101.5 68.5t77 104.5t44 131.5 q-248 -4 -360.5 -58t-112.5 -165zM1110 575q246 8 357.5 59.5t111.5 153.5q0 41 -29.5 74t-103.5 33q-61 0 -116.5 -24.5t-98.5 -67.5t-75 -101.5t-46 -126.5z" />
<glyph unicode="&#x4d6;" horiz-adv-x="1171" d="M160 0l340 1419h880l-51 -215h-624l-84 -356h553l-52 -211h-551l-102 -422h672l-51 -215h-930zM678 1814l183 45q4 -72 34.5 -107.5t98.5 -35.5q121 0 184 145l166 -57q-47 -129 -144.5 -193.5t-234.5 -64.5q-123 0 -202 68.5t-85 199.5z" />
<glyph unicode="&#x4d7;" horiz-adv-x="1071" d="M199 387q0 137 44 265t127 227.5t199.5 159t261.5 59.5q156 0 242 -80t86 -205q0 -129 -63.5 -209t-165 -125t-229.5 -61.5t-259 -20.5q-2 -4 -2 -8v-20q0 -186 236 -187q139 0 278 58l21 -201q-49 -23 -139.5 -45.5t-204.5 -22.5q-115 0 -197 33t-134 90.5t-76.5 132 t-24.5 160.5zM459 575q246 8 357.5 59.5t111.5 153.5q0 41 -29.5 74t-103.5 33q-61 0 -116.5 -24.5t-98.5 -67.5t-75 -101.5t-46 -126.5zM547 1499l183 45q4 -72 34.5 -107.5t98.5 -35.5q121 0 184 145l166 -57q-47 -129 -144.5 -193.5t-234.5 -64.5q-123 0 -202 68.5 t-85 199.5z" />
<glyph unicode="&#x4d8;" horiz-adv-x="1429" d="M225 442q0 68 14.5 157t47.5 185h958q6 39 6 82q0 96 -24.5 165t-69.5 112t-109.5 63.5t-142.5 20.5q-117 0 -216 -29t-169 -59l-18 211q66 39 183.5 70.5t258.5 31.5t248.5 -42t178.5 -114.5t106.5 -172t35.5 -214.5q0 -211 -61 -384t-171 -297t-257 -191.5t-319 -67.5 q-227 0 -353.5 125t-126.5 348zM477 430q0 -117 63.5 -179.5t188.5 -62.5q90 0 165 31t133 83t101 122t72 149h-706q-16 -78 -17 -143z" />
<glyph unicode="&#x4d9;" horiz-adv-x="1071" d="M158 258q0 129 63.5 209t164.5 125t229 61.5t259 20.5v8q0 4 1.5 9t1.5 11q0 186 -236 187q-139 0 -279 -58l-20 201q49 23 139 45.5t205 22.5t197 -33t134 -90t76.5 -132t24.5 -161q0 -137 -44 -265t-127 -227.5t-199.5 -159t-262.5 -59.5q-156 0 -241.5 80t-85.5 205z M389 283q0 -41 29.5 -74t103.5 -33q61 0 116.5 24.5t98.5 67.5t74 101.5t47 126.5q-246 -8 -357.5 -59.5t-111.5 -153.5z" />
<glyph unicode="&#x4da;" horiz-adv-x="1429" d="M225 442q0 68 14.5 157t47.5 185h958q6 39 6 82q0 96 -24.5 165t-69.5 112t-109.5 63.5t-142.5 20.5q-117 0 -216 -29t-169 -59l-18 211q66 39 183.5 70.5t258.5 31.5t248.5 -42t178.5 -114.5t106.5 -172t35.5 -214.5q0 -211 -61 -384t-171 -297t-257 -191.5t-319 -67.5 q-227 0 -353.5 125t-126.5 348zM477 430q0 -117 63.5 -179.5t188.5 -62.5q90 0 165 31t133 83t101 122t72 149h-706q-16 -78 -17 -143zM717 1685q0 35 13.5 64.5t33.5 50t47 32t53 11.5q53 0 89 -34t36 -91q0 -33 -13 -60.5t-34.5 -48t-48 -32t-53.5 -11.5q-53 0 -88 33 t-35 86zM1139 1685q0 35 13 64.5t33.5 50t47.5 32t53 11.5q53 0 89 -34t36 -91q0 -33 -13 -60.5t-34.5 -48t-48 -32t-53.5 -11.5q-53 0 -88 33t-35 86z" />
<glyph unicode="&#x4db;" horiz-adv-x="1071" d="M158 258q0 129 63.5 209t164.5 125t229 61.5t259 20.5v8q0 4 1.5 9t1.5 11q0 186 -236 187q-139 0 -279 -58l-20 201q49 23 139 45.5t205 22.5t197 -33t134 -90t76.5 -132t24.5 -161q0 -137 -44 -265t-127 -227.5t-199.5 -159t-262.5 -59.5q-156 0 -241.5 80t-85.5 205z M389 283q0 -41 29.5 -74t103.5 -33q61 0 116.5 24.5t98.5 67.5t74 101.5t47 126.5q-246 -8 -357.5 -59.5t-111.5 -153.5zM479 1366q0 35 13.5 64.5t33.5 50t47 32t53 11.5q53 0 89 -34t36 -91q0 -33 -13 -60.5t-34.5 -48t-48 -32t-53.5 -11.5q-53 0 -88 33t-35 86zM901 1366 q0 35 13 64.5t33.5 50t47.5 32t53 11.5q53 0 89 -34t36 -91q0 -33 -13 -60.5t-34.5 -48t-48 -32t-53.5 -11.5q-53 0 -88 33t-35 86z" />
<glyph unicode="&#x4dc;" horiz-adv-x="1880" d="M12 0q78 104 166 209.5t181.5 205t191.5 189.5t194 164l-378 651h297l315 -602l143 602h252l-145 -602q168 156 322.5 305.5t297.5 296.5h314q-186 -186 -369.5 -358t-357.5 -332q123 -150 225 -340t172 -389h-285q-70 193 -161 356.5t-195 300.5l-160 -657h-250l158 659 q-176 -147 -330.5 -306.5t-308.5 -352.5h-289zM961 1690q0 35 13.5 64.5t33.5 50t47 32t53 11.5q53 0 89 -34t36 -91q0 -33 -13 -60.5t-34.5 -48t-48 -32t-53.5 -11.5q-53 0 -88 33t-35 86zM1383 1690q0 35 13 64.5t33.5 50t47.5 32t53 11.5q53 0 89 -34t36 -91 q0 -33 -13 -60.5t-34.5 -48t-48 -32t-53.5 -11.5q-53 0 -88 33t-35 86z" />
<glyph unicode="&#x4dd;" horiz-adv-x="1832" d="M47 12l66 199q29 -16 57.5 -21.5t54.5 -5.5q84 0 142.5 48.5t95.5 123t53 164.5t16 174q0 29 -6 63t-21.5 62.5t-42 47t-69.5 18.5q-23 0 -47 -6.5t-41 -14.5l-12 193q33 14 80 25.5t94 11.5q137 0 206.5 -100.5t69.5 -274.5v-40t-4 -42h195l104 434h236l-105 -434h177 q27 98 70.5 181t105 144.5t139.5 96.5t172 35q53 0 89 -9.5t77 -29.5l-66 -197q-49 25 -102 25q-86 0 -144.5 -50.5t-94.5 -126t-52 -164.5t-16 -167q0 -88 33.5 -140.5t107.5 -52.5q37 0 70.5 8.5t62.5 18.5l12 -195q-37 -16 -87 -28.5t-103 -12.5q-150 0 -229.5 101.5 t-79.5 273.5q0 47 6 101h-193l-108 -449h-234l107 449h-176q-25 -100 -67 -186.5t-103.5 -151t-141 -101.5t-178.5 -37q-53 0 -93 8.5t-83 30.5zM875 1366q0 35 13.5 64.5t33.5 50t47 32t53 11.5q53 0 89 -34t36 -91q0 -33 -13 -60.5t-34.5 -48t-48 -32t-53.5 -11.5 q-53 0 -88 33t-35 86zM1297 1366q0 35 13 64.5t33.5 50t47.5 32t53 11.5q53 0 89 -34t36 -91q0 -33 -13 -60.5t-34.5 -48t-48 -32t-53.5 -11.5q-53 0 -88 33t-35 86z" />
<glyph unicode="&#x4de;" horiz-adv-x="1155" d="M72 80l118 205q63 -35 147.5 -63.5t194.5 -28.5q174 0 271.5 68.5t97.5 189.5q0 98 -75.5 141t-204.5 43h-191l53 213h162q61 0 122.5 13t112 42t82 75t31.5 112t-49 102.5t-149 36.5q-98 0 -185.5 -27.5t-154.5 -62.5l-35 213q74 41 186.5 69.5t237.5 28.5 q213 0 314.5 -92t101.5 -234q0 -135 -80 -230t-209 -140q102 -47 149 -121t47 -170q0 -102 -42 -192.5t-123.5 -157t-203.5 -105.5t-284 -39q-154 0 -265.5 36t-176.5 75zM588 1702q0 35 13.5 64.5t33.5 50t47 32t53 11.5q53 0 89 -34t36 -91q0 -33 -13 -60.5t-34.5 -48 t-48 -32t-53.5 -11.5q-53 0 -88 33t-35 86zM1010 1702q0 35 13 64.5t33.5 50t47.5 32t53 11.5q53 0 89 -34t36 -91q0 -33 -13 -60.5t-34.5 -48t-48 -32t-53.5 -11.5q-53 0 -88 33t-35 86z" />
<glyph unicode="&#x4df;" horiz-adv-x="929" d="M80 37l74 199q39 -23 106.5 -39.5t163.5 -16.5q45 0 90 8.5t82 26.5t60.5 50t23.5 81q0 35 -16.5 56.5t-43 34t-58.5 16.5t-64 4h-150l45 184h152q84 0 144.5 37t60.5 115q0 59 -45.5 79.5t-116.5 20.5q-39 0 -80 -6t-78 -13.5t-65.5 -16.5t-42.5 -15l-15 198 q55 20 142.5 38t191.5 18q172 0 262 -72t90 -193q0 -80 -52 -154.5t-157 -115.5q141 -63 142 -211q0 -100 -44 -172t-118 -117t-167 -66.5t-191 -21.5q-102 0 -186.5 17.5t-139.5 46.5zM393 1366q0 35 13.5 64.5t33.5 50t47 32t53 11.5q53 0 89 -34t36 -91q0 -33 -13 -60.5 t-34.5 -48t-48 -32t-53.5 -11.5q-53 0 -88 33t-35 86zM815 1366q0 35 13 64.5t33.5 50t47.5 32t53 11.5q53 0 89 -34t36 -91q0 -33 -13 -60.5t-34.5 -48t-48 -32t-53.5 -11.5q-53 0 -88 33t-35 86z" />
<glyph unicode="&#x4e0;" horiz-adv-x="1155" d="M72 78l123 207q59 -35 146 -63.5t196 -28.5q78 0 144.5 19t115.5 55t77.5 86t28.5 112q0 53 -26.5 90t-70.5 58.5t-103.5 30.5t-127.5 9h-73l35 148q55 47 117.5 101t122 108.5t113.5 103.5t95 88h-606l51 217h934l-37 -155q-37 -39 -92 -92.5t-121.5 -114t-138.5 -125 t-139 -121.5q160 -23 252 -111t92 -229q0 -106 -44 -198.5t-129 -160t-210 -105.5t-287 -38q-141 0 -254 32t-184 77z" />
<glyph unicode="&#x4e1;" horiz-adv-x="917" d="M-59 -301l84 199q51 -25 122.5 -43.5t163.5 -18.5q70 0 132.5 18.5t108.5 53.5t72.5 88t26.5 121q0 109 -79.5 152.5t-219.5 43.5h-67l34 152q53 45 110.5 97t113 106.5t104.5 104.5t88 91h-512l49 207h813l-41 -168q-35 -41 -86 -93t-110.5 -110.5t-124 -118 t-125.5 -114.5q147 -33 224 -122t77 -218q0 -106 -41 -198.5t-120 -161t-193.5 -107.5t-261.5 -39q-104 0 -195.5 21.5t-146.5 56.5z" />
<glyph unicode="&#x4e2;" horiz-adv-x="1464" d="M160 0l340 1419h256l-230 -950q92 109 206 237t232.5 256t236.5 246.5t220 210.5h215l-342 -1419h-254l244 1016q-111 -113 -230.5 -241t-237.5 -261t-228.5 -265t-204.5 -249h-223zM797 1607l43 178h617l-43 -178h-617z" />
<glyph unicode="&#x4e3;" horiz-adv-x="1161" d="M219 313q0 90 25 195l135 563h248l-133 -557q-27 -106 -27 -174q0 -33 6 -61.5t21.5 -50t43 -34t68.5 -12.5q68 0 121 28t98 75q6 88 29 180l143 606h248l-151 -637q-10 -47 -15.5 -94t-5.5 -94q0 -59 9.5 -116.5t31.5 -113.5l-221 -32q-12 23 -21.5 50t-17.5 56 q-51 -41 -127 -79t-176 -38q-90 0 -153.5 27t-103.5 73t-57.5 108.5t-17.5 131.5zM555 1292l43 178h617l-43 -178h-617z" />
<glyph unicode="&#x4e4;" horiz-adv-x="1464" d="M160 0l340 1419h256l-230 -950q92 109 206 237t232.5 256t236.5 246.5t220 210.5h215l-342 -1419h-254l244 1016q-111 -113 -230.5 -241t-237.5 -261t-228.5 -265t-204.5 -249h-223zM793 1690q0 35 13.5 64.5t33.5 50t47 32t53 11.5q53 0 89 -34t36 -91q0 -33 -13 -60.5 t-34.5 -48t-48 -32t-53.5 -11.5q-53 0 -88 33t-35 86zM1215 1690q0 35 13 64.5t33.5 50t47.5 32t53 11.5q53 0 89 -34t36 -91q0 -33 -13 -60.5t-34.5 -48t-48 -32t-53.5 -11.5q-53 0 -88 33t-35 86z" />
<glyph unicode="&#x4e5;" horiz-adv-x="1161" d="M219 313q0 90 25 195l135 563h248l-133 -557q-27 -106 -27 -174q0 -33 6 -61.5t21.5 -50t43 -34t68.5 -12.5q68 0 121 28t98 75q6 88 29 180l143 606h248l-151 -637q-10 -47 -15.5 -94t-5.5 -94q0 -59 9.5 -116.5t31.5 -113.5l-221 -32q-12 23 -21.5 50t-17.5 56 q-51 -41 -127 -79t-176 -38q-90 0 -153.5 27t-103.5 73t-57.5 108.5t-17.5 131.5zM533 1366q0 35 13.5 64.5t33.5 50t47 32t53 11.5q53 0 89 -34t36 -91q0 -33 -13 -60.5t-34.5 -48t-48 -32t-53.5 -11.5q-53 0 -88 33t-35 86zM955 1366q0 35 13 64.5t33.5 50t47.5 32 t53 11.5q53 0 89 -34t36 -91q0 -33 -13 -60.5t-34.5 -48t-48 -32t-53.5 -11.5q-53 0 -88 33t-35 86z" />
<glyph unicode="&#x4e6;" horiz-adv-x="1519" d="M248 539q0 164 53 327.5t156.5 293.5t255 211t348.5 81q119 0 219 -38t172 -109.5t112 -178t40 -243.5q0 -164 -53.5 -328t-156 -294t-254.5 -211t-349 -81q-119 0 -218.5 38t-172 109.5t-112.5 178t-40 244.5zM516 561q0 -168 71.5 -268t229.5 -100q117 0 213 58 t164 152.5t105.5 214t37.5 242.5q0 168 -72.5 268.5t-230.5 100.5q-117 0 -212 -58.5t-162.5 -152.5t-105.5 -214t-38 -243zM787 1690q0 35 13.5 64.5t33.5 50t47 32t53 11.5q53 0 89 -34t36 -91q0 -33 -13 -60.5t-34.5 -48t-48 -32t-53.5 -11.5q-53 0 -88 33t-35 86z M1209 1690q0 35 13 64.5t33.5 50t47.5 32t53 11.5q53 0 89 -34t36 -91q0 -33 -13 -60.5t-34.5 -48t-48 -32t-53.5 -11.5q-53 0 -88 33t-35 86z" />
<glyph unicode="&#x4e7;" horiz-adv-x="1153" d="M199 381q0 119 36.5 246t112.5 231.5t190.5 172t270.5 67.5q190 0 290.5 -112t100.5 -296q0 -121 -36 -248t-110.5 -231.5t-190 -172t-273.5 -67.5q-190 0 -290.5 113t-100.5 297zM444 403q0 -102 39 -161.5t138 -59.5q80 0 142 46t104 117t64.5 157t22.5 164 q0 102 -39 162.5t-137 60.5q-80 0 -142.5 -46t-104.5 -118t-64.5 -157t-22.5 -165zM531 1366q0 35 13.5 64.5t33.5 50t47 32t53 11.5q53 0 89 -34t36 -91q0 -33 -13 -60.5t-34.5 -48t-48 -32t-53.5 -11.5q-53 0 -88 33t-35 86zM953 1366q0 35 13 64.5t33.5 50t47.5 32 t53 11.5q53 0 89 -34t36 -91q0 -33 -13 -60.5t-34.5 -48t-48 -32t-53.5 -11.5q-53 0 -88 33t-35 86z" />
<glyph unicode="&#x4e8;" horiz-adv-x="1519" d="M248 539q0 164 53 327.5t156.5 293.5t255 211t348.5 81q119 0 219 -38t172 -109.5t112 -178t40 -243.5q0 -164 -53.5 -328t-156 -294t-254.5 -211t-349 -81q-119 0 -218.5 38t-172 109.5t-112.5 178t-40 244.5zM516 561q0 -168 71.5 -268t229.5 -100q88 0 164 33.5 t137.5 92t107.5 136t74 166.5h-782q-2 -16 -2 -31v-29zM555 809h780q0 12 1 24.5t1 26.5q0 168 -72.5 268.5t-230.5 100.5q-86 0 -161.5 -33t-137 -90t-107.5 -134t-73 -163z" />
<glyph unicode="&#x4e9;" horiz-adv-x="1153" d="M199 381q0 119 36.5 246t112.5 231.5t190.5 172t270.5 67.5q190 0 290.5 -112t100.5 -296q0 -121 -36 -248t-110.5 -231.5t-190 -172t-273.5 -67.5q-190 0 -290.5 113t-100.5 297zM444 403q0 -102 39.5 -161.5t137.5 -59.5q55 0 102 22.5t84 61.5t65.5 90.5t47.5 106.5 h-474q-2 -16 -2 -30.5v-29.5zM483 623h469q0 10 1 21t1 22q0 102 -39 162.5t-137 60.5q-53 0 -99 -21.5t-83 -58.5t-65.5 -85t-47.5 -101z" />
<glyph unicode="&#x4ea;" horiz-adv-x="1519" d="M248 539q0 164 53 327.5t156.5 293.5t255 211t348.5 81q119 0 219 -38t172 -109.5t112 -178t40 -243.5q0 -164 -53.5 -328t-156 -294t-254.5 -211t-349 -81q-119 0 -218.5 38t-172 109.5t-112.5 178t-40 244.5zM516 561q0 -168 71.5 -268t229.5 -100q88 0 164 33.5 t137.5 92t107.5 136t74 166.5h-782q-2 -16 -2 -31v-29zM555 809h780q0 12 1 24.5t1 26.5q0 168 -72.5 268.5t-230.5 100.5q-86 0 -161.5 -33t-137 -90t-107.5 -134t-73 -163zM787 1690q0 35 13.5 64.5t33.5 50t47 32t53 11.5q53 0 89 -34t36 -91q0 -33 -13 -60.5t-34.5 -48 t-48 -32t-53.5 -11.5q-53 0 -88 33t-35 86zM1209 1690q0 35 13 64.5t33.5 50t47.5 32t53 11.5q53 0 89 -34t36 -91q0 -33 -13 -60.5t-34.5 -48t-48 -32t-53.5 -11.5q-53 0 -88 33t-35 86z" />
<glyph unicode="&#x4eb;" horiz-adv-x="1153" d="M199 381q0 119 36.5 246t112.5 231.5t190.5 172t270.5 67.5q190 0 290.5 -112t100.5 -296q0 -121 -36 -248t-110.5 -231.5t-190 -172t-273.5 -67.5q-190 0 -290.5 113t-100.5 297zM444 403q0 -102 39.5 -161.5t137.5 -59.5q55 0 102 22.5t84 61.5t65.5 90.5t47.5 106.5 h-474q-2 -16 -2 -30.5v-29.5zM483 623h469q0 10 1 21t1 22q0 102 -39 162.5t-137 60.5q-53 0 -99 -21.5t-83 -58.5t-65.5 -85t-47.5 -101zM531 1366q0 35 13.5 64.5t33.5 50t47 32t53 11.5q53 0 89 -34t36 -91q0 -33 -13 -60.5t-34.5 -48t-48 -32t-53.5 -11.5q-53 0 -88 33 t-35 86zM953 1366q0 35 13 64.5t33.5 50t47.5 32t53 11.5q53 0 89 -34t36 -91q0 -33 -13 -60.5t-34.5 -48t-48 -32t-53.5 -11.5q-53 0 -88 33t-35 86z" />
<glyph unicode="&#x4ec;" horiz-adv-x="1232" d="M66 72l112 204q59 -35 137 -59t177 -24q106 0 192 31.5t152.5 88t111.5 134t72 167.5h-588l53 217h572q2 29 2 38.5v25.5q0 88 -24.5 150.5t-69.5 102.5t-106.5 58.5t-135.5 18.5q-109 0 -196 -23.5t-146 -50.5l-16 217q59 29 166.5 56.5t244.5 27.5q117 0 215.5 -33 t171 -98.5t113.5 -163.5t41 -229q0 -223 -61.5 -400.5t-172 -301.5t-264 -190.5t-340.5 -66.5q-147 0 -251.5 34t-161.5 69zM506 1690q0 35 13.5 64.5t33.5 50t47 32t53 11.5q53 0 89 -34t36 -91q0 -33 -13 -60.5t-34.5 -48t-48 -32t-53.5 -11.5q-53 0 -88 33t-35 86z M928 1690q0 35 13 64.5t33.5 50t47.5 32t53 11.5q53 0 89 -34t36 -91q0 -33 -13 -60.5t-34.5 -48t-48 -32t-53.5 -11.5q-53 0 -88 33t-35 86z" />
<glyph unicode="&#x4ed;" horiz-adv-x="970" d="M76 37l74 205q53 -25 111 -41.5t134 -16.5q143 0 235.5 72t127.5 197h-420l45 186h399q0 123 -56 187.5t-183 64.5q-66 0 -133.5 -17.5t-108.5 -37.5l-14 198q53 25 132 44.5t171 19.5q111 0 191.5 -34t134 -90t79 -133t25.5 -163q0 -170 -45 -301t-129 -220t-204 -136.5 t-267 -47.5q-92 0 -169 17.5t-130 46.5zM369 1366q0 35 13.5 64.5t33.5 50t47 32t53 11.5q53 0 89 -34t36 -91q0 -33 -13 -60.5t-34.5 -48t-48 -32t-53.5 -11.5q-53 0 -88 33t-35 86zM791 1366q0 35 13 64.5t33.5 50t47.5 32t53 11.5q53 0 89 -34t36 -91q0 -33 -13 -60.5 t-34.5 -48t-48 -32t-53.5 -11.5q-53 0 -88 33t-35 86z" />
<glyph unicode="&#x4ee;" horiz-adv-x="1167" d="M63 23l82 206q31 -14 66 -23t84 -9t88 11t74 32.5t69.5 55.5t71.5 81q-47 131 -88 271t-76 276.5t-60.5 263.5t-39.5 231h276q20 -172 61.5 -376.5t100.5 -415.5q104 166 215 370.5t221 421.5h281q-162 -297 -309.5 -544.5t-292.5 -464.5q-61 -92 -123 -172 t-132.5 -138.5t-156.5 -91.5t-196 -33q-63 0 -120 13.5t-96 34.5zM635 1607l43 178h617l-43 -178h-617z" />
<glyph unicode="&#x4ef;" horiz-adv-x="1011" d="M-115 -336l80 199q29 -16 65 -26.5t79 -10.5q96 0 168.5 50t132.5 136q-66 227 -111 493.5t-59 565.5h249q2 -86 9.5 -190.5t18.5 -214t27.5 -216t37.5 -196.5q61 98 114.5 206.5t98.5 216t78.5 209t58.5 185.5h262q-41 -117 -90 -243t-109.5 -252.5t-130 -252.5 t-149.5 -245q-59 -90 -123 -173t-138.5 -146.5t-164.5 -102.5t-205 -39q-63 0 -113.5 14.5t-85.5 32.5zM455 1292l43 178h617l-43 -178h-617z" />
<glyph unicode="&#x4f0;" horiz-adv-x="1167" d="M63 23l82 206q31 -14 66 -23t84 -9t88 11t74 32.5t69.5 55.5t71.5 81q-47 131 -88 271t-76 276.5t-60.5 263.5t-39.5 231h276q20 -172 61.5 -376.5t100.5 -415.5q104 166 215 370.5t221 421.5h281q-162 -297 -309.5 -544.5t-292.5 -464.5q-61 -92 -123 -172 t-132.5 -138.5t-156.5 -91.5t-196 -33q-63 0 -120 13.5t-96 34.5zM602 1690q0 35 13.5 64.5t33.5 50t47 32t53 11.5q53 0 89 -34t36 -91q0 -33 -13 -60.5t-34.5 -48t-48 -32t-53.5 -11.5q-53 0 -88 33t-35 86zM1024 1690q0 35 13 64.5t33.5 50t47.5 32t53 11.5q53 0 89 -34 t36 -91q0 -33 -13 -60.5t-34.5 -48t-48 -32t-53.5 -11.5q-53 0 -88 33t-35 86z" />
<glyph unicode="&#x4f1;" horiz-adv-x="1011" d="M-115 -336l80 199q29 -16 65 -26.5t79 -10.5q96 0 168.5 50t132.5 136q-66 227 -111 493.5t-59 565.5h249q2 -86 9.5 -190.5t18.5 -214t27.5 -216t37.5 -196.5q61 98 114.5 206.5t98.5 216t78.5 209t58.5 185.5h262q-41 -117 -90 -243t-109.5 -252.5t-130 -252.5 t-149.5 -245q-59 -90 -123 -173t-138.5 -146.5t-164.5 -102.5t-205 -39q-63 0 -113.5 14.5t-85.5 32.5zM416 1366q0 35 13.5 64.5t33.5 50t47 32t53 11.5q53 0 89 -34t36 -91q0 -33 -13 -60.5t-34.5 -48t-48 -32t-53.5 -11.5q-53 0 -88 33t-35 86zM838 1366q0 35 13 64.5 t33.5 50t47.5 32t53 11.5q53 0 89 -34t36 -91q0 -33 -13 -60.5t-34.5 -48t-48 -32t-53.5 -11.5q-53 0 -88 33t-35 86z" />
<glyph unicode="&#x4f2;" horiz-adv-x="1167" d="M63 23l82 206q31 -14 66 -23t84 -9t88 11t74 32.5t69.5 55.5t71.5 81q-47 131 -88 271t-76 276.5t-60.5 263.5t-39.5 231h276q20 -172 61.5 -376.5t100.5 -415.5q104 166 215 370.5t221 421.5h281q-162 -297 -309.5 -544.5t-292.5 -464.5q-61 -92 -123 -172 t-132.5 -138.5t-156.5 -91.5t-196 -33q-63 0 -120 13.5t-96 34.5zM643 1618l291 318l127 -154l-324 -270zM1030 1616l293 318l125 -154l-322 -272z" />
<glyph unicode="&#x4f3;" horiz-adv-x="1011" d="M-115 -336l80 199q29 -16 65 -26.5t79 -10.5q96 0 168.5 50t132.5 136q-66 227 -111 493.5t-59 565.5h249q2 -86 9.5 -190.5t18.5 -214t27.5 -216t37.5 -196.5q61 98 114.5 206.5t98.5 216t78.5 209t58.5 185.5h262q-41 -117 -90 -243t-109.5 -252.5t-130 -252.5 t-149.5 -245q-59 -90 -123 -173t-138.5 -146.5t-164.5 -102.5t-205 -39q-63 0 -113.5 14.5t-85.5 32.5zM442 1292l291 318l127 -154l-324 -270zM829 1290l293 318l125 -154l-322 -272z" />
<glyph unicode="&#x4f4;" horiz-adv-x="1300" d="M328 825q0 37 5 87.5t19 107.5l99 399h258l-101 -413q-18 -78 -18 -134q0 -102 59.5 -142t167.5 -40q63 0 126 11.5t104 25.5l165 692h261l-343 -1419h-258l121 506q-47 -14 -113.5 -24.5t-119.5 -10.5q-211 0 -321.5 90t-110.5 264zM653 1690q0 35 13.5 64.5t33.5 50 t47 32t53 11.5q53 0 89 -34t36 -91q0 -33 -13 -60.5t-34.5 -48t-48 -32t-53.5 -11.5q-53 0 -88 33t-35 86zM1075 1690q0 35 13 64.5t33.5 50t47.5 32t53 11.5q53 0 89 -34t36 -91q0 -33 -13 -60.5t-34.5 -48t-48 -32t-53.5 -11.5q-53 0 -88 33t-35 86z" />
<glyph unicode="&#x4f5;" horiz-adv-x="1095" d="M240 637q0 63 18 135l72 299h248l-80 -326q-10 -41 -11 -69q0 -68 47.5 -92.5t122.5 -24.5q49 0 95.5 8t76.5 19l117 485h248l-258 -1071h-248l92 385q-35 -10 -84 -18.5t-106 -8.5q-162 0 -256 68t-94 211zM475 1366q0 35 13.5 64.5t33.5 50t47 32t53 11.5q53 0 89 -34 t36 -91q0 -33 -13 -60.5t-34.5 -48t-48 -32t-53.5 -11.5q-53 0 -88 33t-35 86zM897 1366q0 35 13 64.5t33.5 50t47.5 32t53 11.5q53 0 89 -34t36 -91q0 -33 -13 -60.5t-34.5 -48t-48 -32t-53.5 -11.5q-53 0 -88 33t-35 86z" />
<glyph unicode="&#x4f6;" horiz-adv-x="1042" d="M160 0l340 1419h843l-51 -219h-585l-236 -983h211l-143 -596h-246l92 379h-225z" />
<glyph unicode="&#x4f7;" horiz-adv-x="931" d="M143 244q0 106 46.5 173.5t116 110.5t151.5 70t151.5 53.5t115.5 61.5t46 92q0 49 -38 70.5t-105 21.5q-86 0 -150.5 -20.5t-107.5 -36.5l-11 198q47 20 136.5 40t187.5 20q66 0 126 -15.5t106.5 -47t74 -81t27.5 -114.5q0 -113 -47 -183.5t-117 -114.5t-152 -71 t-151.5 -53.5t-116.5 -61t-47 -92.5q0 -51 42 -69.5t126 -18.5q39 0 86 3t94 8.5t92 12.5t80 17l-131 -520h-219l76 285q-29 -4 -56.5 -6.5t-56.5 -2.5q-188 0 -281.5 75t-93.5 196z" />
<glyph unicode="&#x4f8;" horiz-adv-x="1779" d="M164 27l334 1392h260l-119 -495q29 4 69 5t66 1q141 0 237.5 -30t156 -84t85 -128t25.5 -160q0 -119 -44 -218t-133 -171.5t-224.5 -113.5t-315.5 -41q-96 0 -205.5 11t-191.5 32zM467 211q23 -4 60.5 -6t84.5 -2q193 0 296.5 81t103.5 228q0 92 -66.5 147.5t-210.5 55.5 q-41 0 -82 -2t-67 -4zM905 1685q0 35 13.5 64.5t33.5 50t47 32t53 11.5q53 0 89 -34t36 -91q0 -33 -13 -60.5t-34.5 -48t-48 -32t-53.5 -11.5q-53 0 -88 33t-35 86zM1327 1685q0 35 13 64.5t33.5 50t47.5 32t53 11.5q53 0 89 -34t36 -91q0 -33 -13 -60.5t-34.5 -48t-48 -32 t-53.5 -11.5q-53 0 -88 33t-35 86zM1360 0l340 1419h252l-340 -1419h-252z" />
<glyph unicode="&#x4f9;" horiz-adv-x="1611" d="M156 31l250 1040h247l-96 -395q41 10 89 15t89 5q174 0 270.5 -77.5t96.5 -229.5q0 -98 -38 -175t-108.5 -129t-172 -80t-226.5 -28q-98 0 -200.5 12.5t-200.5 41.5zM440 180q29 -4 64 -7t84 -3q131 0 203.5 50t72.5 149q0 66 -47 101.5t-151 35.5q-43 0 -84 -5t-70 -12z M750 1366q0 35 13.5 64.5t33.5 50t47 32t53 11.5q53 0 89 -34t36 -91q0 -33 -13 -60.5t-34.5 -48t-48 -32t-53.5 -11.5q-53 0 -88 33t-35 86zM1172 1366q0 35 13 64.5t33.5 50t47.5 32t53 11.5q53 0 89 -34t36 -91q0 -33 -13 -60.5t-34.5 -48t-48 -32t-53.5 -11.5 q-53 0 -88 33t-35 86zM1206 0l256 1071h248l-258 -1071h-246z" />
<glyph unicode="&#x1e80;" horiz-adv-x="1900" d="M344 715q0 336 25 704h258q-12 -197 -20.5 -390t-8.5 -392v-148.5t4 -150.5q63 104 131 220t133.5 234.5t128 237.5t117.5 227h225q6 -111 15.5 -231.5t21.5 -240t24.5 -234.5t24.5 -213q57 109 119 239t123 269t120.5 285.5t115.5 287.5h274q-162 -395 -327 -747.5 t-349 -671.5h-250q-16 111 -31.5 217.5t-28.5 216t-24.5 223t-21.5 236.5q-127 -236 -251 -456t-263 -437h-254q-16 178 -23.5 354t-7.5 361zM999 1776l152 162l303 -322l-115 -114z" />
<glyph unicode="&#x1e81;" horiz-adv-x="1660" d="M291 1071h246q0 -86 2 -185.5t7 -202.5t12 -203.5t20 -188.5q57 88 113.5 187.5t107.5 200.5t95 201.5t77 190.5h213q0 -84 2 -178t7 -194.5t12 -204t20 -203.5q53 78 108.5 178t106.5 205.5t93 209t69 187.5h258q-43 -123 -105.5 -261t-140.5 -279.5t-167 -277.5 t-185 -253h-205q-23 172 -38.5 339t-19.5 339q-39 -88 -88 -181.5t-102 -182.5t-106.5 -170t-98.5 -144h-205q-18 94 -35.5 215t-32 258t-25.5 288.5t-15 309.5zM819 1454l152 162l303 -322l-115 -114z" />
<glyph unicode="&#x1e82;" horiz-adv-x="1900" d="M344 715q0 336 25 704h258q-12 -197 -20.5 -390t-8.5 -392v-148.5t4 -150.5q63 104 131 220t133.5 234.5t128 237.5t117.5 227h225q6 -111 15.5 -231.5t21.5 -240t24.5 -234.5t24.5 -213q57 109 119 239t123 269t120.5 285.5t115.5 287.5h274q-162 -395 -327 -747.5 t-349 -671.5h-250q-16 111 -31.5 217.5t-28.5 216t-24.5 223t-21.5 236.5q-127 -236 -251 -456t-263 -437h-254q-16 178 -23.5 354t-7.5 361zM1114 1639l354 305l133 -168l-387 -260z" />
<glyph unicode="&#x1e83;" horiz-adv-x="1660" d="M291 1071h246q0 -86 2 -185.5t7 -202.5t12 -203.5t20 -188.5q57 88 113.5 187.5t107.5 200.5t95 201.5t77 190.5h213q0 -84 2 -178t7 -194.5t12 -204t20 -203.5q53 78 108.5 178t106.5 205.5t93 209t69 187.5h258q-43 -123 -105.5 -261t-140.5 -279.5t-167 -277.5 t-185 -253h-205q-23 172 -38.5 339t-19.5 339q-39 -88 -88 -181.5t-102 -182.5t-106.5 -170t-98.5 -144h-205q-18 94 -35.5 215t-32 258t-25.5 288.5t-15 309.5zM928 1317l354 305l133 -168l-387 -260z" />
<glyph unicode="&#x1e84;" horiz-adv-x="1900" d="M344 715q0 336 25 704h258q-12 -197 -20.5 -390t-8.5 -392v-148.5t4 -150.5q63 104 131 220t133.5 234.5t128 237.5t117.5 227h225q6 -111 15.5 -231.5t21.5 -240t24.5 -234.5t24.5 -213q57 109 119 239t123 269t120.5 285.5t115.5 287.5h274q-162 -395 -327 -747.5 t-349 -671.5h-250q-16 111 -31.5 217.5t-28.5 216t-24.5 223t-21.5 236.5q-127 -236 -251 -456t-263 -437h-254q-16 178 -23.5 354t-7.5 361zM981 1679q0 35 13.5 64.5t33.5 50t47 32t53 11.5q53 0 89 -34t36 -91q0 -33 -13 -60.5t-34.5 -48t-48 -32t-53.5 -11.5 q-53 0 -88 33t-35 86zM1403 1679q0 35 13 64.5t33.5 50t47.5 32t53 11.5q53 0 89 -34t36 -91q0 -33 -13 -60.5t-34.5 -48t-48 -32t-53.5 -11.5q-53 0 -88 33t-35 86z" />
<glyph unicode="&#x1e85;" horiz-adv-x="1660" d="M291 1071h246q0 -86 2 -185.5t7 -202.5t12 -203.5t20 -188.5q57 88 113.5 187.5t107.5 200.5t95 201.5t77 190.5h213q0 -84 2 -178t7 -194.5t12 -204t20 -203.5q53 78 108.5 178t106.5 205.5t93 209t69 187.5h258q-43 -123 -105.5 -261t-140.5 -279.5t-167 -277.5 t-185 -253h-205q-23 172 -38.5 339t-19.5 339q-39 -88 -88 -181.5t-102 -182.5t-106.5 -170t-98.5 -144h-205q-18 94 -35.5 215t-32 258t-25.5 288.5t-15 309.5zM797 1366q0 35 13.5 64.5t33.5 50t47 32t53 11.5q53 0 89 -34t36 -91q0 -33 -13 -60.5t-34.5 -48t-48 -32 t-53.5 -11.5q-53 0 -88 33t-35 86zM1219 1366q0 35 13 64.5t33.5 50t47.5 32t53 11.5q53 0 89 -34t36 -91q0 -33 -13 -60.5t-34.5 -48t-48 -32t-53.5 -11.5q-53 0 -88 33t-35 86z" />
<glyph unicode="&#x1ef2;" horiz-adv-x="1218" d="M330 1419h274q35 -158 80 -315t98 -311q127 154 247 308t224 318h291q-80 -113 -159.5 -219t-162.5 -211.5t-171 -210t-183 -213.5l-135 -565h-258l135 565q-84 215 -152.5 427t-127.5 427zM667 1786l152 162l303 -322l-115 -114z" />
<glyph unicode="&#x1ef3;" horiz-adv-x="1011" d="M-115 -336l80 199q29 -16 65 -26.5t79 -10.5q96 0 168.5 50t132.5 136q-66 227 -111 493.5t-59 565.5h249q2 -86 9.5 -190.5t18.5 -214t27.5 -216t37.5 -196.5q61 98 114.5 206.5t98.5 216t78.5 209t58.5 185.5h262q-41 -117 -90 -243t-109.5 -252.5t-130 -252.5 t-149.5 -245q-59 -90 -123 -173t-138.5 -146.5t-164.5 -102.5t-205 -39q-63 0 -113.5 14.5t-85.5 32.5zM473 1454l152 162l303 -322l-115 -114z" />
<glyph unicode="&#x2000;" horiz-adv-x="977" />
<glyph unicode="&#x2001;" horiz-adv-x="1954" />
<glyph unicode="&#x2002;" horiz-adv-x="977" />
<glyph unicode="&#x2003;" horiz-adv-x="1954" />
<glyph unicode="&#x2004;" horiz-adv-x="651" />
<glyph unicode="&#x2005;" horiz-adv-x="488" />
<glyph unicode="&#x2006;" horiz-adv-x="325" />
<glyph unicode="&#x2007;" horiz-adv-x="325" />
<glyph unicode="&#x2008;" horiz-adv-x="244" />
<glyph unicode="&#x2009;" horiz-adv-x="390" />
<glyph unicode="&#x200a;" horiz-adv-x="108" />
<glyph unicode="&#x2010;" horiz-adv-x="653" d="M170 471l53 227h545l-53 -227h-545z" />
<glyph unicode="&#x2011;" horiz-adv-x="653" d="M170 471l53 227h545l-53 -227h-545z" />
<glyph unicode="&#x2012;" horiz-adv-x="653" d="M170 471l53 227h545l-53 -227h-545z" />
<glyph unicode="&#x2013;" horiz-adv-x="1013" d="M109 481l49 209h1024l-49 -209h-1024z" />
<glyph unicode="&#x2014;" horiz-adv-x="2037" d="M109 481l49 209h2048l-49 -209h-2048z" />
<glyph unicode="&#x2018;" horiz-adv-x="514" d="M367 1038q8 76 34.5 151t65.5 143.5t85 130t95 110.5l156 -66q-72 -109 -119 -224.5t-63 -244.5h-254z" />
<glyph unicode="&#x2019;" horiz-adv-x="514" d="M330 1083q72 109 119 224.5t63 244.5h254q-8 -76 -34.5 -150.5t-65.5 -143t-85 -130t-96 -110.5z" />
<glyph unicode="&#x201a;" horiz-adv-x="514" d="M16 -197q72 109 119.5 224.5t63.5 244.5h254q-8 -76 -35 -150.5t-66 -143t-85 -130t-95 -110.5z" />
<glyph unicode="&#x201c;" horiz-adv-x="921" d="M367 1038q8 76 34.5 151t65.5 143.5t85 130t95 110.5l156 -66q-72 -109 -119 -224.5t-63 -244.5h-254zM775 1038q8 76 34.5 151t65.5 143.5t85 130t95 110.5l156 -66q-72 -109 -119 -224.5t-63 -244.5h-254z" />
<glyph unicode="&#x201d;" horiz-adv-x="921" d="M329 1083q72 109 119.5 224.5t63.5 244.5h254q-8 -76 -35 -150.5t-66 -143t-85 -130t-95 -110.5zM737 1083q72 109 119.5 224.5t63.5 244.5h254q-8 -76 -35 -150.5t-66 -143t-85 -130t-95 -110.5z" />
<glyph unicode="&#x201e;" horiz-adv-x="923" d="M16 -197q72 109 119.5 224.5t63.5 244.5h254q-8 -76 -35 -150.5t-66 -143t-85 -130t-95 -110.5zM426 -197q72 109 119.5 224.5t63.5 244.5h254q-8 -76 -35 -150.5t-66 -143t-85 -130t-95 -110.5z" />
<glyph unicode="&#x2020;" horiz-adv-x="989" d="M279 795l49 196h301l102 428h209l-102 -428h301l-49 -196h-299l-119 -496q-41 -168 -84 -309.5t-96 -286.5h-136q16 145 40 286.5t65 309.5l119 496h-301z" />
<glyph unicode="&#x2021;" horiz-adv-x="989" d="M150 250l47 196h301l82 349h-301l49 194h301l102 430h209l-102 -430h301l-49 -194h-299l-84 -349h301l-50 -196h-299q-39 -152 -77.5 -282t-89.5 -265h-136q14 135 36 264t59 283h-301z" />
<glyph unicode="&#x2022;" horiz-adv-x="757" d="M258 723q0 55 19.5 105.5t55.5 87t87 59t117 22.5q63 0 114 -22.5t88 -59t56.5 -87t19.5 -105.5t-19.5 -105.5t-56.5 -88t-88 -60.5t-114 -23q-66 0 -117 23t-87 60.5t-55.5 88t-19.5 105.5z" />
<glyph unicode="&#x2026;" horiz-adv-x="2107" d="M219 117q0 86 53 134t121 48q66 0 107 -37t41 -108q0 -41 -15.5 -75t-40 -57.5t-56.5 -36t-64 -12.5q-66 0 -106 36t-40 108zM915 117q0 86 53 134t121 48q66 0 107 -37t41 -108q0 -41 -15.5 -75t-40 -57.5t-56.5 -36t-64 -12.5q-66 0 -106 36t-40 108zM1612 117 q0 86 53 134t121 48q66 0 107 -37t41 -108q0 -41 -15.5 -75t-40 -57.5t-56.5 -36t-64 -12.5q-66 0 -106 36t-40 108z" />
<glyph unicode="&#x202f;" horiz-adv-x="390" />
<glyph unicode="&#x2039;" horiz-adv-x="636" d="M190 594l433 459l155 -92l-321 -398l151 -377l-166 -77z" />
<glyph unicode="&#x203a;" horiz-adv-x="636" d="M137 201l322 397l-152 377l166 78l252 -486l-432 -458z" />
<glyph unicode="&#x205f;" horiz-adv-x="488" />
<glyph unicode="&#x20ac;" d="M203 455l41 176h147q12 84 35 170h-143l41 174h155q43 102 104.5 188t145.5 149.5t191.5 98.5t246.5 35q74 0 135.5 -12.5t124.5 -34.5l-98 -197q-43 16 -89 26.5t-107 10.5q-152 0 -247 -73.5t-153 -190.5h484l-76 -174h-471q-10 -41 -19.5 -84t-13.5 -86h430l-74 -176 h-366q2 -80 20.5 -133.5t52 -84t79.5 -44t102 -13.5q86 0 151.5 17.5t120.5 38.5l10 -201q-55 -25 -143 -44.5t-178 -19.5q-213 0 -334 116t-127 368h-178z" />
<glyph unicode="&#x2116;" horiz-adv-x="2222" d="M160 0l338 1419h221q123 -225 221 -469.5t174 -484.5l227 954h254l-340 -1419h-227q-35 121 -75 251t-87 262t-99 262t-110 251l-245 -1026h-252zM1507 279l47 204h693l-47 -204h-693zM1655 961q0 82 25.5 169t81 158.5t140.5 117.5t203 46q141 0 218 -79t77 -210 q0 -82 -25.5 -169t-81 -158.5t-140 -117.5t-203.5 -46q-141 0 -218 78.5t-77 210.5zM1849 979q0 -68 29 -109t94 -41q57 0 100.5 30t73 76t45 102.5t15.5 107.5q0 68 -27.5 108.5t-95.5 40.5q-57 0 -100.5 -29.5t-73 -75.5t-45 -102.5t-15.5 -107.5z" />
<glyph unicode="&#x2122;" horiz-adv-x="1703" d="M264 1251v168h617v-168h-213v-534h-191v534h-213zM930 717q20 260 33.5 427t29.5 275h191q37 -74 90 -178t106 -215q55 111 110.5 215.5t90.5 177.5h195q18 -109 29.5 -275.5t27.5 -426.5h-180q-4 109 -10.5 233.5t-14.5 229.5q-25 -41 -53.5 -94.5t-55 -105.5t-49 -98 t-34.5 -73h-107q-12 27 -34.5 72t-50 97t-56.5 105.5t-51 96.5q-8 -104 -14.5 -229.5t-10.5 -233.5h-182z" />
<glyph unicode="&#x25ca;" horiz-adv-x="1118" d="M229 729q94 109 181.5 205t168 185t158.5 172t156 165q80 -168 160 -354.5t166 -409.5q-96 -109 -182.5 -205t-167.5 -185t-158.5 -172t-155.5 -165q-80 168 -160 354.5t-166 409.5zM467 707q45 -123 81 -214.5t77 -177.5q96 98 178 191.5t178 208.5q-45 123 -81 214 t-77 177q-96 -100 -178 -193.5t-178 -205.5z" />
<glyph unicode="&#x25fc;" horiz-adv-x="1075" d="M0 0v1075h1075v-1075h-1075z" />
</font>
</defs>
</svg>
