<?xml version="1.0" standalone="no"?>
<!DOCTYPE svg PUBLIC "-//W3C//DTD SVG 1.1//EN" "http://www.w3.org/Graphics/SVG/1.1/DTD/svg11.dtd" >
<svg xmlns="http://www.w3.org/2000/svg">
<metadata></metadata>
<defs>
<font id="ubuntumedium" horiz-adv-x="1163" >
<font-face units-per-em="2048" ascent="1638" descent="-410" />
<missing-glyph horiz-adv-x="477" />
<glyph unicode="&#xfb01;" horiz-adv-x="1392" d="M158 0v1147q0 209 108.5 325.5t331.5 116.5q78 0 132 -12t85 -25l-39 -200q-29 10 -68.5 18t-86.5 8q-123 0 -169 -65.5t-46 -169.5v-72h393v-207h-393v-864h-248zM956 1384q0 72 45.5 113t108.5 41q61 0 106.5 -41t45.5 -113q0 -70 -45.5 -110.5t-106.5 -40.5 q-63 0 -108.5 41t-45.5 110zM985 0v1071h248v-1071h-248z" />
<glyph unicode="&#xfb02;" horiz-adv-x="1439" d="M158 0v1147q0 209 108.5 325.5t331.5 116.5q78 0 132 -12t85 -25l-39 -200q-29 10 -68.5 18t-86.5 8q-123 0 -169 -65.5t-46 -169.5v-72h393v-207h-393v-864h-248zM985 315v1233l248 41v-1227q0 -45 7 -75.5t25.5 -52t50.5 -33t81 -17.5l-35 -204q-111 2 -183.5 24.5 t-115.5 64.5t-60.5 104.5t-17.5 141.5z" />
<glyph unicode="&#xd;" horiz-adv-x="477" />
<glyph horiz-adv-x="0" />
<glyph horiz-adv-x="0" />
<glyph unicode=" "  horiz-adv-x="477" />
<glyph unicode="&#x09;" horiz-adv-x="477" />
<glyph unicode="&#xa0;" horiz-adv-x="477" />
<glyph unicode="!" horiz-adv-x="626" d="M150 135q0 72 48 118t115 46q70 0 117 -46t47 -118t-47 -117t-117 -45q-68 0 -115.5 45t-47.5 117zM182 1038v381h264v-381q0 -170 -12 -311t-31 -285h-176q-20 143 -32.5 285.5t-12.5 310.5z" />
<glyph unicode="&#x22;" horiz-adv-x="935" d="M141 1432v124h250v-126q0 -98 -14.5 -212t-32.5 -229h-158q-20 115 -32.5 227.5t-12.5 215.5zM544 1432v124h250v-126q0 -98 -14.5 -212t-32.5 -229h-158q-20 115 -32.5 227.5t-12.5 215.5z" />
<glyph unicode="#" horiz-adv-x="1374" d="M94 360v195h201l59 309h-260v193h297l70 362h219l-70 -362h285l70 362h219l-70 -362h166v-193h-203l-59 -309h262v-195h-299l-70 -360h-219l70 360h-285l-69 -360h-220l70 360h-164zM514 555h285l59 309h-285z" />
<glyph unicode="$" d="M104 121l70 194q66 -33 159 -59.5t212 -26.5q141 0 195.5 42t54.5 112q0 47 -22.5 82t-63.5 61.5t-97.5 49t-124.5 47.5q-63 23 -125.5 51t-112.5 70t-81 101.5t-31 145.5q0 141 84 240.5t258 128.5v229h213v-221q98 -8 176 -27.5t123 -37.5l-51 -203q-59 23 -140 43 t-186 20q-111 0 -166 -40t-55 -109q0 -41 16.5 -68.5t49.5 -49.5t80 -41t106 -40q84 -33 159 -68.5t130 -84t87 -114t32 -155.5q0 -135 -84 -233.5t-277 -126.5v-256h-213v250q-147 10 -238 39.5t-137 54.5z" />
<glyph unicode="%" horiz-adv-x="1837" d="M96 1063q0 188 95.5 287.5t248.5 99.5q154 0 249 -99.5t95 -287.5q0 -186 -95 -286.5t-249 -100.5q-76 0 -139 25.5t-108.5 74.5t-71 122t-25.5 165zM293 1063q0 -109 39 -163t108 -54q70 0 110 54t40 163t-40 163t-110 54t-108.5 -54.5t-38.5 -162.5zM399 0l801 1419 h236l-801 -1419h-236zM1053 354q0 188 95 287.5t249 99.5t249 -99.5t95 -287.5q0 -186 -95.5 -286.5t-248.5 -100.5q-76 0 -139.5 25.5t-108.5 75t-70.5 122t-25.5 164.5zM1249 354q0 -109 39 -163t109 -54t109.5 54t39.5 163t-40 163t-109 54q-70 0 -109 -54t-39 -163z" />
<glyph unicode="&#x26;" horiz-adv-x="1400" d="M88 377q0 78 23.5 141.5t63.5 114.5t92 90t110 70q-61 66 -99 139.5t-38 154.5q0 172 105.5 268.5t277.5 96.5q88 0 156.5 -24.5t113.5 -67.5t68.5 -101.5t23.5 -123.5q0 -66 -21.5 -123.5t-58.5 -105.5t-85 -88t-103 -70l280 -283q29 53 47.5 119.5t28.5 130.5l207 -27 q-10 -82 -43 -181t-86 -190q68 -76 130 -156.5t103 -160.5h-258q-20 35 -52 76t-66 76q-84 -76 -192.5 -123t-246.5 -47q-137 0 -229 36.5t-148.5 94t-80 127t-23.5 137.5zM326 393q0 -35 13 -71.5t43 -68.5t78 -52.5t115 -20.5q92 0 167 29t128 82l-360 366 q-31 -16 -63.5 -38.5t-59.5 -54.5t-44 -74t-17 -97zM459 1102q0 -59 32.5 -117.5t90.5 -112.5q39 20 72.5 45t59 56t41 67.5t15.5 83.5q0 59 -39 101.5t-113 42.5q-78 0 -118.5 -47t-40.5 -119z" />
<glyph unicode="'" horiz-adv-x="532" d="M141 1432v124h250v-126q0 -98 -14.5 -212t-32.5 -229h-158q-20 115 -32.5 227.5t-12.5 215.5z" />
<glyph unicode="(" horiz-adv-x="694" d="M154 612q0 287 96 540t262 452l174 -115q-135 -184 -211 -404.5t-76 -472.5t76 -473t211 -403l-174 -115q-166 199 -262 452t-96 539z" />
<glyph unicode=")" horiz-adv-x="694" d="M8 -264q135 182 211 403t76 473t-76 472.5t-211 404.5l174 115q166 -199 262.5 -452t96.5 -540t-96.5 -539.5t-262.5 -451.5z" />
<glyph unicode="*" horiz-adv-x="987" d="M70 1030l69 213l31 -10q70 -23 139.5 -66t128.5 -82l-37.5 150t-19.5 149v35h225v-35q0 -72 -19.5 -149.5t-37.5 -149.5q59 39 130 82t138 66l31 10l70 -213l-33 -10q-66 -20 -149 -27.5t-154 -9.5q57 -45 119.5 -97t105.5 -112l20 -29l-182 -129l-20 27q-41 59 -72 135 t-59 142q-27 -66 -59 -142t-73 -135l-18 -27l-184 129l22 29q41 59 103.5 111.5t122.5 97.5q-72 2 -155 7t-151 30z" />
<glyph unicode="+" d="M106 481v209h365v402h221v-402h365v-209h-365v-401h-221v401h-365z" />
<glyph unicode="," horiz-adv-x="548" d="M72 -276q49 119 66.5 232.5t17.5 199.5q0 25 -1 61.5t-3 54.5h262q4 -35 4 -51v-33q0 -127 -40 -262t-112 -256z" />
<glyph unicode="-" horiz-adv-x="645" d="M47 471v227h551v-227h-551z" />
<glyph unicode="." horiz-adv-x="544" d="M109 135q0 72 47 118t116 46q68 0 116 -46t48 -118t-48 -117t-116 -45q-70 0 -116.5 45t-46.5 117z" />
<glyph unicode="/" horiz-adv-x="851" d="M-55 -379l692 1983h250l-688 -1983h-254z" />
<glyph unicode="0" d="M88 711q0 178 34 316t98.5 232.5t155.5 143.5t206 49q231 0 362 -191.5t131 -549.5t-131 -550t-362 -192t-362.5 191.5t-131.5 550.5zM344 711q0 -111 11.5 -207t39 -167t73.5 -112t114 -41t112.5 41t72.5 112t40 167t12 207t-12 207t-40 166.5t-73 111.5t-112 41 q-68 0 -114 -41t-73.5 -111.5t-39 -167t-11.5 -206.5z" />
<glyph unicode="1" d="M184 1124q119 47 239 121t212 174h174v-1419h-248v1087q-55 -43 -139 -83.5t-162 -67.5z" />
<glyph unicode="2" d="M92 1270q86 82 202 132t249 50q227 0 334.5 -107.5t107.5 -293.5q0 -74 -30.5 -144.5t-79 -137.5t-109.5 -129t-123 -122q-33 -31 -74 -74t-77.5 -86t-63.5 -82.5t-29 -66.5h631v-209h-903q-2 16 -2 39.5v36.5q0 98 31.5 181t83 154.5t115 135t126.5 125.5q49 47 94.5 92 t79 89t54 90t20.5 95q0 106 -61.5 151.5t-149.5 45.5q-57 0 -106.5 -16.5t-87 -39t-66.5 -46t-43 -37.5z" />
<glyph unicode="3" d="M98 45l49 211q43 -20 125 -46t203 -26q162 0 233.5 62.5t71.5 167.5q0 68 -27.5 112.5t-75.5 72.5t-110.5 39t-132.5 11h-84v201h103q47 0 95 9t87 32.5t63.5 62.5t24.5 101q0 49 -18.5 84t-48 57.5t-68.5 32.5t-82 10q-92 0 -164 -27.5t-127 -62.5l-90 184q29 18 70 39 t91 39.5t107.5 29.5t120.5 11q119 0 205 -28.5t142.5 -81t84 -123t27.5 -154.5q0 -98 -54.5 -176t-140.5 -119q111 -39 183.5 -129t72.5 -231q0 -94 -32.5 -175t-100 -139.5t-171.5 -92.5t-247 -34q-55 0 -113.5 7.5t-110.5 18.5t-95 24.5t-66 25.5z" />
<glyph unicode="4" d="M68 340v176q41 90 109.5 207t152.5 239.5t178 241.5t188 215h236v-876h160v-203h-160v-340h-242v340h-622zM311 543h379v571q-49 -59 -101 -126.5t-101.5 -141.5t-94.5 -151t-82 -152z" />
<glyph unicode="5" d="M117 43l47 209q43 -20 124 -44t197 -24q80 0 137.5 17.5t93.5 48.5t52 71t16 85q0 68 -26.5 121t-93 89.5t-178 55t-281.5 18.5q23 197 35 374t20 355h725v-209h-514q-2 -35 -5 -79t-6 -89t-7 -86t-9 -69q303 -16 447.5 -138t144.5 -333q0 -96 -32.5 -178t-100 -141.5 t-170 -93.5t-239.5 -34q-55 0 -112.5 8.5t-110 19.5t-93.5 23.5t-61 22.5z" />
<glyph unicode="6" d="M106 573q0 205 60.5 364t172.5 267.5t270.5 164.5t357.5 58l14 -204q-111 -2 -207 -23.5t-172 -67t-130 -117t-83 -175.5q100 47 219 47q127 0 216 -36t144.5 -97.5t81 -142.5t25.5 -169q0 -80 -27.5 -163.5t-86 -152.5t-146.5 -113t-209 -44q-244 0 -372 161t-128 443z M358 575q0 -82 11.5 -154.5t39 -126.5t75.5 -86t120 -32q59 0 101.5 24.5t69 63.5t38.5 85t12 89q0 123 -59 187.5t-188 64.5q-59 0 -114.5 -10t-101.5 -31q-2 -16 -3 -35.5t-1 -38.5z" />
<glyph unicode="7" d="M109 1206v213h948v-188q-68 -76 -148 -207t-151.5 -296t-123.5 -353.5t-65 -374.5h-254q12 156 55.5 328t106 334.5t137 305t148.5 238.5h-653z" />
<glyph unicode="8" d="M98 365q0 61 17.5 113t48.5 96t69.5 81t81.5 66q-94 66 -140 142.5t-46 187.5q0 80 32 152.5t91 127.5t143 88t187 33q121 0 205.5 -35t139 -90t79 -122.5t24.5 -131.5q0 -113 -61.5 -200t-141.5 -138q121 -66 179.5 -151.5t58.5 -202.5q0 -88 -30.5 -164t-92 -131 t-153 -86t-209.5 -31q-139 0 -231.5 39t-148 98.5t-79 128t-23.5 130.5zM342 369q0 -31 12.5 -66t41 -63.5t73.5 -48t113 -19.5q61 0 106 16.5t74 44t43 63.5t14 73q0 57 -22.5 100t-64.5 74.5t-99.5 55.5t-126.5 42q-74 -47 -119 -113.5t-45 -158.5zM373 1065 q0 -78 58 -147.5t196 -110.5q76 47 118.5 107.5t42.5 154.5q0 27 -11 58.5t-36.5 58t-64.5 45t-94 18.5t-95.5 -17.5t-65 -45t-36.5 -59t-12 -62.5z" />
<glyph unicode="9" d="M88 979q0 80 26.5 163t84 152.5t145.5 113.5t209 44q250 0 378 -161t128 -453q0 -414 -213 -627t-653 -215l-11 207q123 0 222.5 20.5t174 65.5t125.5 118t78 179q-49 -23 -108.5 -35t-114.5 -12q-127 0 -216 33.5t-145.5 94t-83 140.5t-26.5 172zM338 987 q0 -125 60.5 -188.5t189.5 -63.5q59 0 116.5 11.5t98.5 33.5q2 23 2 39.5v28.5q0 82 -11.5 154.5t-39 127t-75.5 86t-120 31.5q-59 0 -101 -24.5t-69 -63.5t-39 -84t-12 -88z" />
<glyph unicode=":" horiz-adv-x="544" d="M109 135q0 72 47 118t116 46q68 0 116 -46t48 -118t-48 -117t-116 -45q-70 0 -116.5 45t-46.5 117zM109 901q0 72 47 118t116 46q68 0 116 -46t48 -118t-48 -117t-116 -45q-70 0 -116.5 45t-46.5 117z" />
<glyph unicode=";" horiz-adv-x="540" d="M72 -276q49 119 66.5 232.5t17.5 199.5q0 25 -1 61.5t-3 54.5h262q4 -35 4 -51v-33q0 -127 -40 -262t-112 -256zM107 901q0 72 47 118t116 46q68 0 116 -46t48 -118t-48 -117t-116 -45q-70 0 -116.5 45t-46.5 117z" />
<glyph unicode="&#x3c;" d="M106 479v209l883 373l68 -203l-686 -274l686 -275l-68 -203z" />
<glyph unicode="=" d="M106 260v209h951v-209h-951zM106 702v209h951v-209h-951z" />
<glyph unicode="&#x3e;" d="M106 309l687 275l-687 274l68 203l883 -373v-209l-883 -373z" />
<glyph unicode="?" horiz-adv-x="868" d="M33 1358q76 43 173 68.5t200 25.5q123 0 202.5 -34t126.5 -85t65.5 -112.5t18.5 -118.5q0 -70 -25.5 -125t-64.5 -102.5t-84 -89.5t-84 -86t-64.5 -93t-25.5 -110v-23.5t2 -26.5h-213q-4 20 -6 44t-2 45q0 68 22.5 121t57.5 98t74.5 84t74.5 77.5t57.5 79.5t22.5 90 q0 68 -46 112t-138 44q-72 0 -137.5 -17.5t-137.5 -56.5zM209 135q0 72 48 118t116 46q70 0 117 -46t47 -118t-47.5 -117t-116.5 -45q-68 0 -116 45t-48 117z" />
<glyph unicode="@" horiz-adv-x="1988" d="M127 563q0 223 73.5 392t196.5 281t282 168t331 56q178 0 333.5 -53t270.5 -154.5t181.5 -249t66.5 -335.5q0 -145 -32 -256t-89.5 -186.5t-135 -114.5t-171.5 -39q-61 0 -112.5 17t-86.5 54q-45 -33 -105.5 -49t-125.5 -16q-100 0 -183.5 30.5t-144 92t-93 152.5 t-32.5 212q0 100 32.5 189.5t95 155t154 103.5t207.5 38q113 0 203 -18.5t143 -39.5v-635q0 -57 22 -78.5t58 -21.5q88 0 138.5 109.5t50.5 314.5q0 127 -44 236.5t-128 189.5t-204 126t-269 46q-147 0 -271.5 -49t-213.5 -141.5t-139 -225.5t-50 -301q0 -176 51 -308 t144.5 -220t223.5 -133t289 -45q111 0 196 13t128 24l25 -173q-23 -6 -59 -14t-82 -15t-99 -12.5t-109 -5.5q-190 0 -357 51.5t-291 160t-196.5 276.5t-72.5 401zM786 565q0 -129 55.5 -213t172.5 -84q37 0 76.5 5.5t78.5 21.5q-4 23 -7 51.5t-3 54.5v451q-41 10 -106 10 q-70 0 -120 -22.5t-83 -62.5t-48.5 -94t-15.5 -118z" />
<glyph unicode="A" horiz-adv-x="1400" d="M10 0q80 227 151.5 419.5t140.5 364.5t136.5 328t139.5 307h243q72 -152 139.5 -307.5t136 -327.5t141.5 -364.5t153 -419.5h-279q-29 84 -59.5 166t-59.5 168h-598q-29 -86 -58.5 -169t-57.5 -165h-269zM461 543h467q-66 182 -127.5 340t-106.5 262 q-47 -109 -107.5 -264.5t-125.5 -337.5z" />
<glyph unicode="B" horiz-adv-x="1345" d="M170 20v1379q45 8 96 15t104.5 11.5t105.5 6.5t99 2q129 0 240 -19.5t191.5 -64.5t126 -119t45.5 -182q0 -100 -48.5 -172t-134.5 -115q129 -43 190.5 -127t61.5 -213q0 -219 -159.5 -328.5t-489.5 -109.5q-113 0 -227.5 7t-200.5 29zM424 207q43 -4 92 -6t90 -2 q80 0 148.5 10t119 35.5t80 68.5t29.5 111q0 121 -88 168t-244 47h-227v-432zM424 842h182q147 0 231.5 42t84.5 150q0 102 -87 145.5t-227 43.5q-59 0 -105 -2t-79 -7v-372z" />
<glyph unicode="C" horiz-adv-x="1306" d="M117 711q0 178 54 315t148.5 232.5t221.5 144.5t272 49q88 0 159.5 -13.5t125 -29.5t88.5 -34.5t49 -26.5l-76 -211q-49 31 -140 58.5t-198 27.5q-92 0 -172 -32t-138 -95.5t-91 -159.5t-33 -223q0 -113 25.5 -207t79 -163t135.5 -106.5t196 -37.5q137 0 223.5 27.5 t133.5 52.5l69 -211q-25 -16 -66.5 -33t-99 -32t-129 -24.5t-153.5 -9.5q-160 0 -287 49.5t-215 144.5t-135 232t-47 316z" />
<glyph unicode="D" horiz-adv-x="1486" d="M170 20v1379q98 23 208.5 29t196.5 6q178 0 326 -42t253.5 -131.5t162.5 -225.5t57 -324q0 -184 -57 -320.5t-162.5 -227.5t-254 -135t-329.5 -44q-86 0 -194.5 7t-206.5 29zM428 213q23 -2 59.5 -3t100.5 -1q260 0 388 132t128 370q0 242 -125 370.5t-387 128.5 q-115 0 -164 -6v-991z" />
<glyph unicode="E" horiz-adv-x="1200" d="M170 0v1419h911v-219h-653v-350h582v-215h-582v-416h702v-219h-960z" />
<glyph unicode="F" horiz-adv-x="1128" d="M170 0v1419h897v-219h-639v-362h567v-220h-567v-618h-258z" />
<glyph unicode="G" horiz-adv-x="1398" d="M113 711q0 178 54 315t148.5 232.5t221.5 144.5t270 49q98 0 175 -13.5t132 -29.5t91 -34.5t50 -26.5l-77 -211q-61 37 -152.5 62.5t-191.5 25.5q-219 0 -335 -136.5t-116 -377.5q0 -115 27.5 -210t82 -163t135.5 -105.5t189 -37.5q68 0 117 5t78 13v510h258v-682 q-53 -20 -180 -45t-293 -25q-154 0 -281 49.5t-216 143.5t-138 231t-49 316z" />
<glyph unicode="H" horiz-adv-x="1472" d="M170 0v1419h258v-567h616v567h259v-1419h-259v629h-616v-629h-258z" />
<glyph unicode="I" horiz-adv-x="598" d="M170 0v1419h258v-1419h-258z" />
<glyph unicode="J" horiz-adv-x="1050" d="M10 88l92 203q51 -35 126 -66.5t153 -31.5q131 0 190.5 65.5t59.5 224.5v936h260v-952q0 -104 -22.5 -194.5t-79 -158t-151.5 -106.5t-241 -39q-135 0 -234.5 38t-152.5 81z" />
<glyph unicode="K" horiz-adv-x="1333" d="M170 0v1419h258v-585q68 68 141.5 144.5t146 155t138.5 152.5t119 133h309q-68 -78 -143.5 -161.5t-155.5 -168.5t-161 -169t-158 -160q86 -66 175 -153t175 -186t164.5 -207t144.5 -214h-305q-53 82 -123 172t-146.5 174t-158.5 160t-162 131v-637h-258z" />
<glyph unicode="L" horiz-adv-x="1093" d="M170 0v1419h258v-1196h639v-223h-897z" />
<glyph unicode="M" horiz-adv-x="1810" d="M131 0q8 176 19.5 364.5t24.5 374t29.5 359.5t35.5 321h239q45 -78 100.5 -190.5t113 -236.5t113.5 -252t103 -236q47 109 102.5 236.5t113 251.5t112.5 236.5t100 190.5h234q18 -156 34.5 -331t30 -358t24.5 -368.5t19 -361.5h-254q-8 248 -19 510t-34 508 q-23 -47 -53.5 -112.5t-65 -142.5t-70.5 -159t-70 -158.5t-62.5 -143t-49.5 -114.5h-192q-20 47 -49 115t-62.5 144.5t-69.5 158.5t-71 158t-65.5 142.5t-53.5 111.5q-23 -246 -34 -508t-19 -510h-254z" />
<glyph unicode="N" horiz-adv-x="1515" d="M170 0v1419h211q82 -86 176 -203.5t189.5 -244.5t184.5 -255t159 -239v942h256v-1419h-220q-70 117 -155.5 251t-178 270t-187.5 264t-181 231v-1016h-254z" />
<glyph unicode="O" horiz-adv-x="1601" d="M113 711q0 182 55 320t150.5 232.5t220.5 141.5t264 47t264 -47t218 -141.5t148.5 -232.5t55.5 -320t-54.5 -321.5t-147.5 -233t-218 -140.5t-266 -47t-267 47t-219.5 140.5t-148.5 232.5t-55 322zM381 711q0 -117 28.5 -212.5t83 -162t132 -103t176.5 -36.5 q96 0 174 36.5t132 103t83 162t29 212.5t-29 212t-83 161.5t-132 103.5t-174 37q-98 0 -176 -37t-132.5 -104.5t-83 -161.5t-28.5 -211z" />
<glyph unicode="P" horiz-adv-x="1275" d="M170 0v1399q90 20 199.5 27.5t201.5 7.5q309 0 474 -113t165 -352q0 -125 -44 -214t-128 -145.5t-204.5 -83t-276.5 -26.5h-129v-500h-258zM428 721h125q186 0 286.5 52t100.5 198q0 70 -26.5 117t-73.5 73.5t-111.5 37.5t-138.5 11q-98 0 -162 -6v-483z" />
<glyph unicode="Q" horiz-adv-x="1601" d="M113 711q0 182 55 320t150.5 232.5t220.5 141.5t264 47t264 -47t218 -141.5t148.5 -232.5t55.5 -320q0 -154 -39 -277t-108.5 -214t-163 -148.5t-203.5 -81.5q6 -43 43 -74t93 -51.5t129 -33.5t153 -19l-58 -195q-264 20 -419.5 101t-198.5 257q-127 12 -236.5 65.5 t-191.5 146t-129 223.5t-47 301zM381 711q0 -117 28.5 -212.5t83 -162t132 -103t176.5 -36.5q96 0 174 36.5t132 103t83 162t29 212.5t-29 212t-83 161.5t-132 103.5t-174 37q-98 0 -176 -37t-132.5 -104.5t-83 -161.5t-28.5 -211z" />
<glyph unicode="R" horiz-adv-x="1310" d="M170 0v1399q94 20 200.5 27.5t190.5 7.5q307 0 470 -113t163 -344q0 -289 -285 -391q39 -47 88.5 -115t100.5 -146.5t98 -161.5t84 -163h-289q-39 74 -84 148.5t-91 145.5t-91 133t-84 112q-29 -2 -49.5 -2h-38.5h-125v-537h-258zM428 745h113q94 0 165.5 10.5t119.5 37 t73 71.5t25 115q0 66 -25 111t-71 71.5t-109 37.5t-139 11q-82 0 -152 -6v-459z" />
<glyph unicode="S" horiz-adv-x="1105" d="M61 74l76 211q55 -31 149.5 -61.5t227.5 -30.5q139 0 202.5 47t63.5 133q0 51 -21.5 88t-61.5 66.5t-97 55t-131 50.5q-74 27 -142.5 58.5t-120.5 78.5t-84 112.5t-32 157.5q0 193 133 302.5t363 109.5q133 0 236.5 -29.5t162.5 -64.5l-80 -209q-70 39 -152.5 59.5 t-170.5 20.5q-104 0 -163 -43t-59 -121q0 -47 19.5 -81t55.5 -60.5t84 -49t106 -43.5q100 -37 179 -74.5t133 -90t83 -123t29 -170.5q0 -193 -136.5 -298.5t-398.5 -105.5q-88 0 -160.5 11.5t-129 28t-97.5 33.5t-66 32z" />
<glyph unicode="T" horiz-adv-x="1185" d="M27 1196v223h1132v-223h-436v-1196h-260v1196h-436z" />
<glyph unicode="U" horiz-adv-x="1439" d="M160 532v887h260v-862q0 -96 21.5 -164.5t61.5 -111.5t94 -63.5t122 -20.5t123 20.5t95 63.5t61.5 111.5t21.5 164.5v862h260v-887q0 -123 -34 -225t-102.5 -178t-175 -118t-251.5 -42t-250 42t-173.5 118t-101 178.5t-32.5 224.5z" />
<glyph unicode="V" horiz-adv-x="1398" d="M14 1419h285q49 -143 100.5 -292.5t102.5 -294t102 -279.5t101 -248q47 113 98 247t103 279.5t103.5 295t98.5 292.5h276q-125 -362 -266 -724.5t-295 -694.5h-248q-154 332 -296 694.5t-265 724.5z" />
<glyph unicode="W" horiz-adv-x="1921" d="M51 1419h277q25 -139 52.5 -284.5t57 -285.5t60 -271.5t61.5 -241.5q39 104 79 220t79 235.5t74.5 238.5t66.5 230h221q33 -111 70 -231t77 -239.5t80 -235.5t76 -218q31 111 59.5 241t57.5 270t56.5 285.5t52.5 286.5h266q-72 -385 -160 -740t-196 -679h-246 q-160 414 -309 903q-76 -248 -154 -471t-156 -432h-245q-111 324 -198 679t-159 740z" />
<glyph unicode="X" horiz-adv-x="1345" d="M41 0q92 174 213 357.5t262 383.5l-455 678h308l313 -485l309 485h295l-448 -676q156 -211 275.5 -399t201.5 -344h-303q-59 121 -149.5 266.5t-188.5 280.5q-41 -53 -89 -127t-96.5 -150.5t-89.5 -148.5t-65 -121h-293z" />
<glyph unicode="Y" horiz-adv-x="1280" d="M6 1419h303q72 -160 158 -317t180 -311q92 154 180 311.5t160 316.5h287q-115 -217 -239 -431t-265 -431v-557h-258v553q-141 219 -266 434t-240 432z" />
<glyph unicode="Z" horiz-adv-x="1204" d="M61 0v162q41 76 95.5 165t116 183t128 190.5t132 185.5t128 170t117.5 144h-682v219h1016v-190q-68 -74 -164 -191.5t-198.5 -256t-201.5 -285t-175 -277.5h762v-219h-1074z" />
<glyph unicode="[" horiz-adv-x="708" d="M190 -379v1983h508v-197h-274v-1589h274v-197h-508z" />
<glyph unicode="\" horiz-adv-x="851" d="M-35 1604h250l692 -1983h-254z" />
<glyph unicode="]" horiz-adv-x="708" d="M10 -182h273v1589h-273v197h508v-1983h-508v197z" />
<glyph unicode="^" d="M68 715l411 704h205l410 -704l-203 -101l-309 539l-310 -539z" />
<glyph unicode="_" horiz-adv-x="1024" d="M0 -172h1024v-207h-1024v207z" />
<glyph unicode="`" horiz-adv-x="802" d="M158 1511l157 144l297 -359l-123 -110z" />
<glyph unicode="a" horiz-adv-x="1093" d="M82 324q0 92 36 155.5t97 103.5t142 57t169 17q41 0 86 -5t97 -17v41q0 43 -10.5 82t-36 68.5t-67.5 46t-106 16.5q-86 0 -157.5 -12.5t-116.5 -28.5l-31 201q47 16 137.5 32.5t192.5 16.5q123 0 207 -31t134 -86t71.5 -134t21.5 -173v-649q-57 -12 -173 -30t-261 -18 q-96 0 -176 18.5t-136.5 59.5t-88 106.5t-31.5 162.5zM330 330q0 -88 55.5 -122t149.5 -34q115 0 174 12v275q-20 6 -59.5 12t-86.5 6q-41 0 -83 -6t-75.5 -22.5t-54 -46t-20.5 -74.5z" />
<glyph unicode="b" horiz-adv-x="1220" d="M158 33v1515l248 41v-555q43 23 105 41.5t138 18.5q113 0 202 -40t148.5 -114t91 -177t31.5 -228q0 -129 -37.5 -232.5t-108.5 -177.5t-171 -113t-227 -39q-123 0 -235 18.5t-185 41.5zM406 205q27 -6 68.5 -11.5t100.5 -5.5q137 0 215 93.5t78 257.5q0 158 -62.5 250 t-197.5 92q-61 0 -115.5 -18.5t-86.5 -41.5v-616z" />
<glyph unicode="c" horiz-adv-x="966" d="M98 535q0 119 37 222t105.5 179t167 119t221.5 43q152 0 286 -56l-53 -202q-43 18 -97 30.5t-116 12.5q-145 0 -221 -91.5t-76 -256.5q0 -160 72 -253.5t242 -93.5q63 0 124.5 12.5t106.5 30.5l35 -204q-41 -20 -124 -37t-171 -17q-137 0 -238.5 42t-168 117t-99.5 178.5 t-33 224.5z" />
<glyph unicode="d" horiz-adv-x="1220" d="M98 532q0 127 32 230.5t93.5 177.5t149.5 114t202 40q78 0 137.5 -18.5t102.5 -41.5v514l248 41v-1556q-74 -23 -185.5 -41.5t-234.5 -18.5q-127 0 -227.5 39t-171 112t-108.5 176t-38 232zM352 539q0 -164 78 -257.5t215 -93.5q59 0 101 5.5t69 11.5v614 q-33 23 -87 42.5t-116 19.5q-135 0 -197.5 -92t-62.5 -250z" />
<glyph unicode="e" horiz-adv-x="1169" d="M98 530q0 141 42 248t112 177.5t160 106.5t184 36q221 0 345 -137.5t124 -409.5q0 -20 -1 -46t-3 -46h-707q10 -129 91 -200t235 -71q90 0 165 16.5t118 35.5l32 -203q-20 -10 -56 -21.5t-82 -20.5t-99 -15.5t-109 -6.5q-141 0 -245.5 42t-172 117t-100.5 176t-33 222z M356 641h461q0 51 -14.5 97t-42 80t-67.5 53.5t-95 19.5q-57 0 -100 -21.5t-73 -56.5t-46.5 -80t-22.5 -92z" />
<glyph unicode="f" horiz-adv-x="819" d="M158 0v1147q0 207 108.5 324.5t327.5 117.5q86 0 151.5 -15t98.5 -28l-47 -205q-35 16 -81 26.5t-100 10.5q-59 0 -100 -17.5t-65.5 -48t-34.5 -74.5t-10 -95v-72h389v-207h-389v-864h-248z" />
<glyph unicode="g" horiz-adv-x="1200" d="M98 563q0 117 36 215.5t104.5 168t167 108.5t223.5 39q121 0 229.5 -18.5t183.5 -39.5v-927q0 -256 -130 -375t-398 -119q-98 0 -191.5 16.5t-168.5 42.5l45 211q63 -27 144 -43t175 -16q150 0 213.5 61.5t63.5 182.5v41q-37 -18 -97.5 -37t-138.5 -19q-102 0 -187 33 t-145.5 96.5t-94.5 158.5t-34 220zM352 563q0 -158 68.5 -230.5t177.5 -72.5q59 0 111.5 16.5t85.5 38.5v555q-27 6 -66 11.5t-98 5.5q-135 0 -207 -89.5t-72 -234.5z" />
<glyph unicode="h" horiz-adv-x="1191" d="M158 0v1548l248 41v-530q41 14 95 24.5t107 10.5q129 0 214 -36t136.5 -100.5t73 -154.5t21.5 -201v-602h-248v563q0 86 -11.5 146.5t-37 98.5t-68.5 55.5t-106 17.5q-49 0 -100.5 -10.5t-75.5 -18.5v-852h-248z" />
<glyph unicode="i" horiz-adv-x="565" d="M129 1384q0 72 45 113t109 41q61 0 106 -41t45 -113q0 -70 -45 -110.5t-106 -40.5q-63 0 -108.5 41t-45.5 110zM160 0v1071h248v-1071h-248z" />
<glyph unicode="j" horiz-adv-x="563" d="M-139 -356l33 202q45 -14 108 -14q86 0 121 50t35 151v1038h248v-1042q0 -209 -100 -309.5t-286 -100.5q-27 0 -74.5 5t-84.5 20zM127 1384q0 72 45 113t109 41q61 0 106 -41t45 -113q0 -70 -45 -110.5t-106 -40.5q-63 0 -108.5 41t-45.5 110z" />
<glyph unicode="k" horiz-adv-x="1128" d="M158 0v1548l248 41v-936q47 49 100 105.5t104.5 113t97.5 108.5t78 91h293q-102 -115 -215.5 -237.5t-228.5 -239.5q61 -51 128.5 -124t131 -155t119 -163.5t92.5 -151.5h-287q-37 63 -85 133t-103.5 135.5t-112.5 124t-112 99.5v-492h-248z" />
<glyph unicode="l" horiz-adv-x="608" d="M154 315v1233l247 41v-1227q0 -45 7.5 -75.5t26 -52t50 -33t80.5 -17.5l-35 -204q-111 2 -183.5 24.5t-115.5 64.5t-60 104.5t-17 141.5z" />
<glyph unicode="m" horiz-adv-x="1771" d="M158 0v1036q72 20 187.5 39t244.5 19q111 0 181.5 -29t117.5 -76q23 16 57.5 34.5t77.5 34t91 26t97 10.5q125 0 206 -36t127 -100.5t63.5 -155.5t17.5 -200v-602h-248v563q0 168 -41 243t-157 75q-59 0 -112.5 -19.5t-80.5 -38.5q16 -51 22.5 -108.5t6.5 -122.5v-592 h-248v563q0 168 -42 243t-157 75q-41 0 -90 -6.5t-73 -10.5v-864h-248z" />
<glyph unicode="n" horiz-adv-x="1198" d="M158 0v1036q72 20 186.5 39t253.5 19q131 0 219 -36t140.5 -100.5t74 -155.5t21.5 -200v-602h-248v563q0 86 -11.5 146.5t-37 98.5t-69.5 55.5t-107 17.5q-47 0 -98.5 -6.5t-75.5 -10.5v-864h-248z" />
<glyph unicode="o" horiz-adv-x="1224" d="M98 537q0 127 38 230t106.5 177t163 114t206.5 40q113 0 208 -40t163 -114t105.5 -177t37.5 -230t-36.5 -231.5t-104 -178.5t-163 -115t-210.5 -41t-209 41t-161.5 115t-105.5 178.5t-38 231.5zM352 537q0 -162 68.5 -256.5t191.5 -94.5t191.5 94.5t68.5 256.5 q0 160 -68.5 253t-191.5 93t-191.5 -93.5t-68.5 -252.5z" />
<glyph unicode="p" horiz-adv-x="1220" d="M158 -379v1415q76 20 186.5 39t233.5 19q127 0 227 -39t171 -112t108.5 -176t37.5 -232q0 -123 -31.5 -225.5t-91 -176.5t-148.5 -115t-202 -41q-76 0 -139.5 18.5t-103.5 41.5v-416h-248zM406 252q33 -23 87 -42.5t115 -19.5q135 0 197.5 92t62.5 248q0 166 -74.5 258.5 t-240.5 92.5q-35 0 -73 -3.5t-74 -13.5v-612z" />
<glyph unicode="q" horiz-adv-x="1220" d="M98 535q0 127 38 230t108.5 176t171 113t227.5 40t237.5 -18.5t182.5 -39.5v-1415h-248v416q-43 -23 -105.5 -41.5t-138.5 -18.5q-115 0 -202.5 40t-147 114t-91.5 176.5t-32 227.5zM352 530q0 -156 62.5 -248t197.5 -92q61 0 115.5 19.5t87.5 42.5v612q-27 6 -66.5 11.5 t-103.5 5.5q-137 0 -215 -93.5t-78 -257.5z" />
<glyph unicode="r" horiz-adv-x="825" d="M158 0v1020q72 27 179 50.5t238 23.5q25 0 58 -3.5t65.5 -8.5t63.5 -12t49 -13l-43 -209q-31 10 -85 21.5t-126 11.5q-41 0 -87 -8.5t-64 -14.5v-858h-248z" />
<glyph unicode="s" horiz-adv-x="935" d="M76 35l43 207q55 -23 132 -43.5t175 -20.5t143 23.5t45 81.5q0 53 -48 88t-158 75q-68 25 -124.5 52.5t-97.5 64.5t-64.5 89.5t-23.5 127.5q0 147 108.5 232.5t295.5 85.5q94 0 180 -17.5t129 -33.5l-45 -201q-41 18 -104.5 33.5t-147.5 15.5q-76 0 -123 -25.5t-47 -78.5 q0 -27 9 -47.5t32 -38t59.5 -35t90.5 -35.5q88 -33 149 -64.5t101 -71.5t58.5 -91.5t18.5 -122.5q0 -154 -113.5 -233t-324.5 -79q-141 0 -227 23.5t-121 38.5z" />
<glyph unicode="t" horiz-adv-x="856" d="M145 426v928l248 41v-324h381v-207h-381v-436q0 -129 41 -184.5t139 -55.5q68 0 120 14.5t83 26.5l41 -196q-43 -18 -112.5 -38t-163.5 -20q-115 0 -192 31t-122 89.5t-63.5 141t-18.5 189.5z" />
<glyph unicode="u" horiz-adv-x="1193" d="M145 471v600h248v-561q0 -172 50.5 -246t174.5 -74q45 0 95.5 4.5t74.5 10.5v866h248v-1038q-72 -18 -186.5 -38t-251.5 -20q-129 0 -216 37t-139.5 102.5t-75 156.5t-22.5 200z" />
<glyph unicode="v" horiz-adv-x="1077" d="M27 1071h264q23 -90 52.5 -193.5t63 -207t69.5 -200.5t67 -175q31 78 65.5 175t68.5 200.5t64.5 207t53.5 193.5h256q-88 -313 -195.5 -586.5t-210.5 -484.5h-213q-102 211 -209.5 484.5t-195.5 586.5z" />
<glyph unicode="w" horiz-adv-x="1597" d="M31 1071h262q18 -86 42.5 -185.5t51.5 -202.5t55.5 -201.5t57.5 -180.5q31 94 60.5 194.5t56 201t50 195.5t42.5 179h190q18 -84 41 -179t48.5 -195.5t55 -201t60.5 -194.5q27 82 55.5 180.5t56 201.5t52 202.5t43.5 185.5h256q-43 -158 -88 -309.5t-90.5 -288.5 t-90.5 -258t-88 -215h-200q-53 152 -109.5 323t-103.5 351q-47 -180 -101.5 -351t-107.5 -323h-203q-41 94 -86 215t-90 258t-90 288.5t-88 309.5z" />
<glyph unicode="x" horiz-adv-x="1083" d="M27 0q31 61 73.5 131t92 142.5t101.5 145.5t103 138l-354 514h272l228 -350l227 350h260l-352 -506q111 -143 212 -289.5t167 -275.5h-269q-18 39 -47.5 89t-63.5 104.5t-71 107.5t-71 100q-72 -92 -140.5 -203.5t-113.5 -197.5h-254z" />
<glyph unicode="y" horiz-adv-x="1062" d="M-2 -344l45 199q74 -29 145 -29q96 0 150.5 46t95.5 142q-117 225 -224.5 491.5t-191.5 565.5h265q20 -86 49.5 -186.5t64.5 -203.5t74 -205.5t78 -190.5q66 182 123 388t104 398h256q-166 -610 -385 -1106q-41 -92 -84 -157.5t-96 -108.5t-118.5 -62.5t-151.5 -19.5 q-57 0 -113.5 12.5t-85.5 26.5z" />
<glyph unicode="z" horiz-adv-x="991" d="M68 0v154q45 82 112.5 178t139 193.5t142 185.5t126.5 153h-494v207h813v-174q-41 -43 -107.5 -121t-142 -173t-152.5 -198.5t-138 -197.5h553v-207h-852z" />
<glyph unicode="{" horiz-adv-x="712" d="M76 514v195q94 0 138 58t44 138v301q0 96 18.5 171t65.5 125t131 76t215 26h14v-197q-59 0 -100 -8t-65.5 -29.5t-36 -57.5t-11.5 -91v-293q0 -123 -31.5 -196t-107.5 -120q76 -47 107.5 -120.5t31.5 -194.5v-295q0 -55 11.5 -90t36 -56.5t65.5 -29.5t100 -8v-197 q-137 0 -223 24.5t-135 75t-67.5 124t-18.5 171.5v303q0 78 -44 136.5t-138 58.5z" />
<glyph unicode="|" horiz-adv-x="614" d="M190 -379v1983h234v-1983h-234z" />
<glyph unicode="}" horiz-adv-x="712" d="M10 -182q119 0 166 38t47 146v295q0 121 32 194.5t107 120.5q-76 47 -107.5 120t-31.5 196v293q0 55 -11 91t-35.5 57.5t-65.5 29.5t-101 8v197h15q131 0 215 -26t131 -76t65.5 -124.5t18.5 -171.5v-301q0 -80 44 -138t138 -58v-195q-94 0 -138 -58.5t-44 -136.5v-303 q0 -98 -18.5 -171.5t-68 -124t-135.5 -75t-223 -24.5v197z" />
<glyph unicode="~" d="M68 481q10 49 29.5 105.5t55 104.5t89 81t129.5 33q63 0 117.5 -25.5t105.5 -57.5t98 -57.5t96 -25.5q51 0 82 39t52 117l170 -47q-10 -49 -30 -105.5t-55.5 -105t-89 -81t-129.5 -32.5q-63 0 -117.5 25.5t-105.5 56.5t-98 56.5t-96 25.5t-80 -38t-53 -116z" />
<glyph unicode="&#xa1;" horiz-adv-x="626" d="M150 909q0 72 48 117t115 45q70 0 117 -45t47 -117t-47 -118t-117 -46q-68 0 -115.5 46.5t-47.5 117.5zM182 6q0 168 12.5 310.5t32.5 285.5h176q18 -143 30.5 -284.5t12.5 -311.5v-381h-264v381z" />
<glyph unicode="&#xa2;" d="M135 598q0 94 25.5 180t75 154.5t120 117t160.5 70.5v297h232v-280q109 -8 210 -50l-55 -200q-43 16 -96 28.5t-117 12.5q-145 0 -222 -86t-77 -244q0 -154 73 -241t241 -87q66 0 128 12.5t107 30.5l35 -202q-35 -16 -96.5 -30.5t-130.5 -21.5v-282h-232v297 q-193 43 -287 185t-94 339z" />
<glyph unicode="&#xa3;" d="M102 584v200h185v136q0 156 34.5 257t96 160.5t147.5 84t189 24.5q86 0 152.5 -16.5t127.5 -43.5l-61 -200q-96 45 -211 47q-53 0 -96 -13.5t-73 -47t-46.5 -92t-16.5 -146.5v-150h365v-200h-365q0 -88 -7 -187.5t-21 -187.5h563v-209h-840q61 313 62 584h-185z" />
<glyph unicode="&#xa5;" d="M14 1419h279q70 -152 141.5 -302t153.5 -292q78 141 147.5 293t136.5 301h277q-86 -166 -175 -335t-194 -343h244v-174h-317v-172h317v-174h-317v-221h-248v221h-318v174h318v172h-318v174h242q-98 168 -195.5 346.5t-173.5 331.5z" />
<glyph unicode="&#xa7;" horiz-adv-x="1042" d="M82 -143l61 196q78 -33 162 -51t174 -18q31 0 66 4t64.5 16t49 33.5t19.5 56.5q0 53 -47 86t-166 76q-78 27 -145.5 56.5t-118.5 71.5t-81 101.5t-30 145.5q0 51 14.5 94t39 79t55 65.5t61.5 54.5q-49 41 -76.5 92t-27.5 114q0 150 107.5 236t305.5 86q98 0 193.5 -20.5 t161.5 -45.5l-60 -202q-57 23 -127.5 42t-169.5 19q-78 0 -124 -25.5t-46 -76.5q0 -57 43 -89t148 -67q82 -29 150.5 -58.5t118.5 -72.5t78 -101.5t28 -140.5q0 -98 -49.5 -164.5t-114.5 -115.5q125 -90 125 -236q0 -94 -37 -155.5t-99.5 -98.5t-142.5 -52t-166 -15 q-129 0 -232.5 25.5t-164.5 54.5zM313 651q0 -84 69 -128t185 -83l62 -22q47 35 75.5 78t28.5 92q0 51 -23.5 84t-65.5 57.5t-99 44.5t-127 47q-47 -35 -76 -78t-29 -92z" />
<glyph unicode="&#xa8;" horiz-adv-x="829" d="M66 1384q0 63 40.5 101.5t96.5 38.5q55 0 97 -38t42 -102q0 -63 -42 -100t-97 -37t-96 37t-41 100zM487 1384q0 63 42 101.5t98 38.5q55 0 96 -38t41 -102q0 -63 -41 -100t-96 -37t-97.5 37t-42.5 100z" />
<glyph unicode="&#xa9;" horiz-adv-x="1667" d="M127 711q0 174 58.5 312t155.5 233.5t225 145.5t268 50q141 0 269 -50t225 -145.5t154.5 -233.5t57.5 -312q0 -176 -57.5 -313.5t-154.5 -232.5t-225 -145.5t-269 -50.5q-139 0 -267.5 50.5t-225.5 145.5t-155.5 232.5t-58.5 313.5zM307 711q0 -129 39 -235.5 t108.5 -182.5t166 -117t213.5 -41t213 41t166.5 117t109.5 182.5t39 235.5t-39 234.5t-109.5 181t-167 116.5t-212.5 41q-117 0 -213.5 -41t-166 -116.5t-108.5 -181t-39 -234.5zM479 713q0 94 29 169.5t80 127t120.5 79t151.5 27.5q102 0 166 -27.5t84 -39.5l-57 -152 q-27 16 -71 31.5t-110 15.5q-86 0 -141 -58.5t-55 -168.5q0 -49 11 -93t34.5 -76t61.5 -50.5t91 -18.5q72 0 118 15.5t77 29.5l49 -155q-25 -12 -92.5 -37t-163.5 -25q-180 0 -281.5 105.5t-101.5 300.5z" />
<glyph unicode="&#xab;" horiz-adv-x="1130" d="M55 582l328 471l182 -90l-217 -381l217 -383l-182 -90zM544 582l328 471l182 -90l-217 -381l217 -383l-182 -90z" />
<glyph unicode="&#xad;" horiz-adv-x="645" d="M47 471v227h551v-227h-551z" />
<glyph unicode="&#xae;" horiz-adv-x="1667" d="M127 711q0 174 58.5 312t155.5 233.5t225 145.5t268 50q141 0 269 -50t225 -145.5t154.5 -233.5t57.5 -312q0 -176 -57.5 -313.5t-154.5 -232.5t-225 -145.5t-269 -50.5q-139 0 -267.5 50.5t-225.5 145.5t-155.5 232.5t-58.5 313.5zM307 711q0 -129 39 -235.5 t108.5 -182.5t166 -117t213.5 -41t213 41t166.5 117t109.5 182.5t39 235.5t-39 234.5t-109.5 181t-167 116.5t-212.5 41q-117 0 -213.5 -41t-166 -116.5t-108.5 -181t-39 -234.5zM555 332v747q63 16 124.5 22.5t108.5 6.5q170 0 257.5 -63.5t87.5 -192.5q0 -70 -34 -122 t-98 -81q41 -59 88.5 -137t92.5 -180h-185q-41 86 -82 156.5t-77 117.5h-111v-274h-172zM727 745h57q80 0 127 21.5t47 87.5q0 57 -44 80.5t-111 23.5h-35.5t-40.5 -4v-209z" />
<glyph unicode="&#xb0;" horiz-adv-x="710" d="M47 1292q0 70 24.5 126.5t67.5 95t98.5 59t116.5 20.5t117.5 -20.5t99.5 -59t68 -95t25 -126.5t-25 -126t-68 -95t-99 -59.5t-118 -20.5q-61 0 -116.5 20.5t-98.5 59.5t-67.5 95.5t-24.5 125.5zM223 1292q0 -63 39 -99t92 -36t92 36t39 99t-38.5 100.5t-92.5 37.5 q-53 0 -92 -37t-39 -101z" />
<glyph unicode="&#xb4;" horiz-adv-x="802" d="M190 1296l302 359l155 -146l-334 -323z" />
<glyph unicode="&#xb6;" horiz-adv-x="1398" d="M82 977q0 223 178 340t494 117q106 0 228 -10.5t218 -32.5v-1770h-223v1600q-23 4 -59.5 6t-65.5 2h-42t-38 -2v-1606h-225v911q-229 27 -347 132.5t-118 312.5z" />
<glyph unicode="&#xb7;" horiz-adv-x="430" d="M54 602q0 72 47 118t116 46q68 0 116 -46t48 -118t-48 -117t-116 -45q-70 0 -116.5 45t-46.5 117z" />
<glyph unicode="&#xb8;" horiz-adv-x="798" d="M135 -393l29 147q20 -6 53 -14t68 -8t54 12t19 37q0 33 -28.5 48t-57.5 26l-20 6q6 20 18.5 46.5t24.5 53.5t22.5 48.5t16.5 31.5h164q-12 -23 -31 -59.5t-29 -61.5q66 -31 91.5 -69.5t25.5 -96.5q0 -72 -61.5 -123t-184.5 -51q-98 0 -174 27z" />
<glyph unicode="&#xbb;" horiz-adv-x="1130" d="M76 199l217 383l-217 381l182 90l328 -471l-328 -473zM565 199l217 383l-217 381l182 90l328 -471l-328 -473z" />
<glyph unicode="&#xbf;" horiz-adv-x="868" d="M49 -57q0 70 25.5 125t64.5 102t84 89t84 86t64.5 93t25.5 111v23.5t-2 25.5h213q4 -20 6 -44t2 -44q0 -68 -22.5 -121t-57 -98t-74.5 -84t-75 -78t-57.5 -80t-22.5 -90q0 -68 46.5 -112t138.5 -44q72 0 137 17.5t137 56.5l70 -190q-76 -43 -173.5 -69t-199.5 -26 q-123 0 -203 34t-127 85t-65.5 112.5t-18.5 119.5zM332 909q0 72 47 117t117 45q68 0 115.5 -45t47.5 -117t-48 -118t-115 -46q-70 0 -117 46t-47 118z" />
<glyph unicode="&#xc2;" horiz-adv-x="1400" d="M10 0q80 227 151.5 419.5t140.5 364.5t136.5 328t139.5 307h243q72 -152 139.5 -307.5t136 -327.5t141.5 -364.5t153 -419.5h-279q-29 84 -59.5 166t-59.5 168h-598q-29 -86 -58.5 -169t-57.5 -165h-269zM399 1630l299 287l299 -287l-96 -108l-203 166l-200 -166z M461 543h467q-66 182 -127.5 340t-106.5 262q-47 -109 -107.5 -264.5t-125.5 -337.5z" />
<glyph unicode="&#xce;" horiz-adv-x="598" d="M2 1630l299 287l299 -287l-96 -108l-203 166l-200 -166zM170 0v1419h258v-1419h-258z" />
<glyph unicode="&#xe2;" horiz-adv-x="1093" d="M82 324q0 92 36 155.5t97 103.5t142 57t169 17q41 0 86 -5t97 -17v41q0 43 -10.5 82t-36 68.5t-67.5 46t-106 16.5q-86 0 -157.5 -12.5t-116.5 -28.5l-31 201q47 16 137.5 32.5t192.5 16.5q123 0 207 -31t134 -86t71.5 -134t21.5 -173v-649q-57 -12 -173 -30t-261 -18 q-96 0 -176 18.5t-136.5 59.5t-88 106.5t-31.5 162.5zM252 1300l299 287l299 -287l-96 -108l-203 166l-200 -166zM330 330q0 -88 55.5 -122t149.5 -34q115 0 174 12v275q-20 6 -59.5 12t-86.5 6q-41 0 -83 -6t-75.5 -22.5t-54 -46t-20.5 -74.5z" />
<glyph unicode="&#xee;" horiz-adv-x="565" d="M-15 1300l299 287l299 -287l-96 -108l-203 166l-200 -166zM160 0v1071h248v-1071h-248z" />
<glyph unicode="&#x102;" horiz-adv-x="1400" d="M10 0q80 227 151.5 419.5t140.5 364.5t136.5 328t139.5 307h243q72 -152 139.5 -307.5t136 -327.5t141.5 -364.5t153 -419.5h-279q-29 84 -59.5 166t-59.5 168h-598q-29 -86 -58.5 -169t-57.5 -165h-269zM408 1851v12h166q4 -66 35.5 -105.5t101.5 -39.5q68 0 99.5 40 t37.5 105h164v-14q0 -141 -85 -219t-216 -78q-66 0 -121 20.5t-96 58.5t-63.5 93t-22.5 127zM461 543h467q-66 182 -127.5 340t-106.5 262q-47 -109 -107.5 -264.5t-125.5 -337.5z" />
<glyph unicode="&#x103;" horiz-adv-x="1093" d="M82 324q0 92 36 155.5t97 103.5t142 57t169 17q41 0 86 -5t97 -17v41q0 43 -10.5 82t-36 68.5t-67.5 46t-106 16.5q-86 0 -157.5 -12.5t-116.5 -28.5l-31 201q47 16 137.5 32.5t192.5 16.5q123 0 207 -31t134 -86t71.5 -134t21.5 -173v-649q-57 -12 -173 -30t-261 -18 q-96 0 -176 18.5t-136.5 59.5t-88 106.5t-31.5 162.5zM256 1536v12h166q4 -66 35.5 -105.5t101.5 -39.5q68 0 99.5 40t37.5 105h164v-14q0 -141 -85 -219t-216 -78q-66 0 -121 20.5t-96 58.5t-63.5 93t-22.5 127zM330 330q0 -88 55.5 -122t149.5 -34q115 0 174 12v275 q-20 6 -59.5 12t-86.5 6q-41 0 -83 -6t-75.5 -22.5t-54 -46t-20.5 -74.5z" />
<glyph unicode="&#x15e;" horiz-adv-x="1105" d="M61 74l76 211q55 -31 149.5 -61.5t227.5 -30.5q139 0 202.5 47t63.5 133q0 51 -21.5 88t-61.5 66.5t-97 55t-131 50.5q-74 27 -142.5 58.5t-120.5 78.5t-84 112.5t-32 157.5q0 193 133 302.5t363 109.5q133 0 236.5 -29.5t162.5 -64.5l-80 -209q-70 39 -152.5 59.5 t-170.5 20.5q-104 0 -163 -43t-59 -121q0 -47 19.5 -81t55.5 -60.5t84 -49t106 -43.5q100 -37 179 -74.5t133 -90t83 -123t29 -170.5q0 -172 -106.5 -273.5t-311.5 -124.5q-8 -16 -15.5 -29.5t-11.5 -25.5q66 -31 91.5 -69.5t25.5 -96.5q0 -72 -61.5 -123t-184.5 -51 q-98 0 -174 27l29 147q20 -6 53 -14t68 -8t54 12t19 37q0 33 -28.5 48t-57.5 26l-20 6q8 23 20.5 52.5t24.5 57.5q-156 6 -255 41t-147 62z" />
<glyph unicode="&#x15f;" horiz-adv-x="935" d="M76 35l43 207q55 -23 132 -43.5t175 -20.5t143 23.5t45 81.5q0 53 -48 88t-158 75q-68 25 -124.5 52.5t-97.5 64.5t-64.5 89.5t-23.5 127.5q0 147 108.5 232.5t295.5 85.5q94 0 180 -17.5t129 -33.5l-45 -201q-41 18 -104.5 33.5t-147.5 15.5q-76 0 -123 -25.5t-47 -78.5 q0 -27 9 -47.5t32 -38t59.5 -35t90.5 -35.5q88 -33 149 -64.5t101 -71.5t58.5 -91.5t18.5 -122.5q0 -131 -83 -207t-236 -96q-19 -33 -29 -62q66 -31 91.5 -69.5t25.5 -96.5q0 -72 -61.5 -123t-184.5 -51q-98 0 -174 27l29 147q20 -6 53 -14t67 -8q35 0 54.5 12t19.5 37 q0 33 -28.5 48t-57.5 26l-20 6q8 23 20 54.5t27 59.5q-119 4 -194 26t-105 34z" />
<glyph unicode="&#x162;" horiz-adv-x="1185" d="M27 1196v223h1132v-223h-436v-1196h-55q-10 -20 -20.5 -42t-16.5 -38q66 -31 91.5 -69.5t25.5 -96.5q0 -72 -61.5 -123t-184.5 -51q-98 0 -174 27l28 147q20 -6 53 -14t68 -8t54.5 12t19.5 37q0 33 -28.5 48t-57.5 26l-21 6q10 29 27.5 68.5t34.5 70.5h-43v1196h-436z " />
<glyph unicode="&#x163;" horiz-adv-x="856" d="M145 426v928l248 41v-324h381v-207h-381v-436q0 -129 41 -184.5t139 -55.5q68 0 120 14.5t83 26.5l41 -196q-35 -16 -87 -31.5t-122 -21.5q-8 -16 -15 -32t-11 -28q66 -31 91 -69.5t25 -96.5q0 -72 -61.5 -123t-183.5 -51q-98 0 -174 27l28 147q20 -6 53 -14t68 -8 t54.5 12t19.5 37q0 33 -29 48t-57 26l-21 6q8 25 22.5 58.5t28.5 62.5q-86 12 -144 46.5t-93 92t-49.5 134.5t-14.5 171z" />
<glyph unicode="&#x218;" horiz-adv-x="1105" d="M61 74l76 211q55 -31 149.5 -61.5t227.5 -30.5q139 0 202.5 47t63.5 133q0 51 -21.5 88t-61.5 66.5t-97 55t-131 50.5q-74 27 -142.5 58.5t-120.5 78.5t-84 112.5t-32 157.5q0 193 133 302.5t363 109.5q133 0 236.5 -29.5t162.5 -64.5l-80 -209q-70 39 -152.5 59.5 t-170.5 20.5q-104 0 -163 -43t-59 -121q0 -47 19.5 -81t55.5 -60.5t84 -49t106 -43.5q100 -37 179 -74.5t133 -90t83 -123t29 -170.5q0 -193 -136.5 -298.5t-398.5 -105.5q-88 0 -160.5 11.5t-129 28t-97.5 33.5t-66 32zM316 -264q31 0 56.5 4t44 17.5t28.5 39t10 70.5v29 h213q2 -16 3 -35t1 -25q0 -72 -22.5 -120t-59.5 -77.5t-85 -43t-99 -13.5q-29 0 -54.5 3t-35.5 7v144z" />
<glyph unicode="&#x219;" horiz-adv-x="935" d="M76 35l43 207q55 -23 132 -43.5t175 -20.5t143 23.5t45 81.5q0 53 -48 88t-158 75q-68 25 -124.5 52.5t-97.5 64.5t-64.5 89.5t-23.5 127.5q0 147 108.5 232.5t295.5 85.5q94 0 180 -17.5t129 -33.5l-45 -201q-41 18 -104.5 33.5t-147.5 15.5q-76 0 -123 -25.5t-47 -78.5 q0 -27 9 -47.5t32 -38t59.5 -35t90.5 -35.5q88 -33 149 -64.5t101 -71.5t58.5 -91.5t18.5 -122.5q0 -154 -113.5 -233t-324.5 -79q-141 0 -227 23.5t-121 38.5zM219 -264q31 0 56.5 4t44 17.5t28.5 39t10 70.5v29h213q2 -16 3 -35t1 -25q0 -72 -22.5 -120t-59.5 -77.5 t-85 -43t-99 -13.5q-29 0 -54.5 3t-35.5 7v144z" />
<glyph unicode="&#x21a;" horiz-adv-x="1185" d="M27 1196v223h1132v-223h-436v-1196h-260v1196h-436zM348 -264q31 0 56.5 4t44 17.5t28.5 39t10 70.5v29h213q2 -16 3 -35t1 -25q0 -72 -22.5 -120t-59.5 -77.5t-85 -43t-99 -13.5q-29 0 -54.5 3t-35.5 7v144z" />
<glyph unicode="&#x21b;" horiz-adv-x="856" d="M145 426v928l248 41v-324h381v-207h-381v-436q0 -129 41 -184.5t139 -55.5q68 0 120 14.5t83 26.5l41 -196q-43 -18 -112.5 -38t-163.5 -20q-115 0 -192 31t-122 89.5t-63.5 141t-18.5 189.5zM258 -264q31 0 56.5 4t44 17.5t28.5 39t10 70.5v29h213q2 -16 3 -35t1 -25 q0 -72 -22.5 -120t-59.5 -77.5t-85 -43t-99 -13.5q-29 0 -54.5 3t-35.5 7v144z" />
<glyph unicode="&#x2c6;" horiz-adv-x="798" d="M100 1300l299 287l299 -287l-96 -108l-203 166l-200 -166z" />
<glyph unicode="&#x2da;" horiz-adv-x="788" d="M168 1409q0 51 18.5 93t49 69.5t71.5 43t86 15.5t86 -15.5t73 -43t50.5 -69.5t18.5 -93q0 -53 -18.5 -94t-50.5 -69.5t-73 -44t-86 -15.5t-86 15.5t-71.5 44t-49 69.5t-18.5 94zM293 1409q0 -51 30.5 -77.5t69.5 -26.5q41 0 72 26.5t31 77.5q0 49 -31 76.5t-72 27.5 q-39 0 -69.5 -27.5t-30.5 -76.5z" />
<glyph unicode="&#x2dc;" horiz-adv-x="800" d="M41 1317q10 29 29.5 62.5t49.5 63.5t66.5 50t81.5 20q37 0 70 -12t64.5 -25.5t61.5 -25.5t58 -12q39 0 66.5 27.5t44.5 62.5l125 -74q-13 -29 -32 -62.5t-48 -63.5t-66 -50.5t-82 -20.5q-37 0 -69.5 11.5t-64 26t-61.5 25.5t-59 11q-39 0 -66.5 -26.5t-43.5 -61.5z" />
<glyph unicode="&#x400;" horiz-adv-x="1200" d="M170 0v1419h911v-219h-653v-350h582v-215h-582v-416h702v-219h-960zM383 1843l157 144l297 -359l-123 -110z" />
<glyph unicode="&#x401;" horiz-adv-x="1200" d="M170 0v1419h911v-219h-653v-350h582v-215h-582v-416h702v-219h-960zM273 1708q0 63 40.5 101.5t96.5 38.5q55 0 97 -38t42 -102q0 -63 -42 -100t-97 -37t-96 37t-41 100zM694 1708q0 63 42 101.5t98 38.5q55 0 96 -38t41 -102q0 -63 -41 -100t-96 -37t-97.5 37t-42.5 100 z" />
<glyph unicode="&#x402;" horiz-adv-x="1579" d="M27 1196v223h1140v-223h-481v-328q20 4 50 9.5t64 8.5t66.5 5t61.5 2q152 0 261 -33t180 -93t104.5 -147.5t33.5 -195.5q0 -102 -32.5 -183t-92 -136.5t-141.5 -85t-182 -29.5q-31 0 -69 2t-66 8l8 197q16 -2 36.5 -3t49.5 -1q115 0 175 56t60 173q0 133 -86 193.5 t-260 60.5q-57 0 -120.5 -7t-100.5 -14v-655h-258v1196h-401z" />
<glyph unicode="&#x403;" horiz-adv-x="1097" d="M170 0v1419h901v-221h-643v-1198h-258zM438 1628l302 359l155 -146l-334 -323z" />
<glyph unicode="&#x404;" horiz-adv-x="1290" d="M113 711q0 182 51 321t143 232.5t218 140.5t276 47q147 0 260 -31.5t184 -72.5l-71 -205q-51 27 -138.5 55.5t-216.5 28.5q-193 0 -298 -103.5t-128 -292.5h604v-219h-610q23 -195 131.5 -304t300.5 -109q137 0 222 27.5t135 52.5l69 -211q-68 -41 -183.5 -70t-258.5 -29 q-154 0 -282 46t-218 138.5t-140 232t-50 325.5z" />
<glyph unicode="&#x405;" horiz-adv-x="1105" d="M61 74l76 211q55 -31 149.5 -61.5t227.5 -30.5q139 0 202.5 47t63.5 133q0 51 -21.5 88t-61.5 66.5t-97 55t-131 50.5q-74 27 -142.5 58.5t-120.5 78.5t-84 112.5t-32 157.5q0 193 133 302.5t363 109.5q133 0 236.5 -29.5t162.5 -64.5l-80 -209q-70 39 -152.5 59.5 t-170.5 20.5q-104 0 -163 -43t-59 -121q0 -47 19.5 -81t55.5 -60.5t84 -49t106 -43.5q100 -37 179 -74.5t133 -90t83 -123t29 -170.5q0 -193 -136.5 -298.5t-398.5 -105.5q-88 0 -160.5 11.5t-129 28t-97.5 33.5t-66 32z" />
<glyph unicode="&#x406;" horiz-adv-x="598" d="M170 0v1419h258v-1419h-258z" />
<glyph unicode="&#x407;" horiz-adv-x="598" d="M-47 1708q0 63 40.5 101.5t96.5 38.5q55 0 97 -38t42 -102q0 -63 -42 -100t-97 -37t-96 37t-41 100zM170 0v1419h258v-1419h-258zM374 1708q0 63 42 101.5t98 38.5q55 0 96 -38t41 -102q0 -63 -41 -100t-96 -37t-97.5 37t-42.5 100z" />
<glyph unicode="&#x408;" horiz-adv-x="1050" d="M10 88l92 203q51 -35 126 -66.5t153 -31.5q131 0 190.5 65.5t59.5 224.5v936h260v-952q0 -104 -22.5 -194.5t-79 -158t-151.5 -106.5t-241 -39q-135 0 -234.5 38t-152.5 81z" />
<glyph unicode="&#x409;" horiz-adv-x="2201" d="M20 201q74 8 129.5 28.5t96.5 54t71.5 84t53.5 117.5q55 160 73.5 399.5t18.5 534.5h887v-510q31 2 64.5 2h66.5q313 0 480 -109.5t167 -352.5q0 -231 -168 -347t-471 -116q-86 0 -193.5 9t-205.5 32v1171h-379q-6 -141 -14.5 -285.5t-30 -278.5t-62.5 -252t-112.5 -207 t-179 -142t-263.5 -58zM1350 213q29 -2 68.5 -3t86.5 -1q70 0 134.5 10t113.5 37t79 73t30 117q0 74 -28 122t-79 76t-122.5 39t-159.5 11h-62t-61 -2v-479z" />
<glyph unicode="&#x40a;" horiz-adv-x="2140" d="M170 0v1419h258v-545h600v545h260v-518q31 2 64.5 2h66.5q313 0 480 -108.5t167 -345.5q0 -231 -167.5 -347t-471.5 -116q-86 0 -193.5 9t-205.5 32v624h-600v-651h-258zM1288 213q29 -2 69 -3t87 -1q70 0 134 10t113.5 37t79 73t29.5 117q0 72 -27.5 118t-79 74t-123 38 t-159.5 10h-61.5t-61.5 -2v-471z" />
<glyph unicode="&#x40b;" horiz-adv-x="1566" d="M27 1196v223h1140v-223h-481v-328q41 10 106.5 17.5t122.5 7.5q150 0 250.5 -34t159.5 -96.5t85 -150.5t26 -196v-416h-258v416q0 131 -62.5 193.5t-220.5 62.5q-57 0 -114.5 -7.5t-94.5 -13.5v-651h-258v1196h-401z" />
<glyph unicode="&#x40c;" horiz-adv-x="1333" d="M170 0v1419h258v-585q68 68 141.5 144.5t146 155t138.5 152.5t119 133h309q-68 -78 -143.5 -161.5t-155.5 -168.5t-161 -169t-158 -160q86 -66 175 -153t175 -186t164.5 -207t144.5 -214h-305q-53 82 -123 172t-146.5 174t-158.5 160t-162 131v-637h-258zM561 1628 l302 359l155 -146l-334 -323z" />
<glyph unicode="&#x40d;" horiz-adv-x="1515" d="M170 0v1419h256v-942q70 111 159 239t184 255t189.5 244.5t176.5 203.5h211v-1419h-254v1016q-86 -102 -181.5 -230.5t-187.5 -264.5t-178 -270t-156 -251h-219zM473 1843l157 144l297 -359l-123 -110z" />
<glyph unicode="&#x40e;" horiz-adv-x="1261" d="M43 1419h289q33 -84 75 -180t90 -198.5t101 -209t107 -213.5q74 182 141 389t127 412h278q-49 -152 -98 -286t-97 -255.5t-96.5 -233t-95.5 -220.5q-51 -115 -105 -200t-119 -140t-143.5 -82t-177.5 -27q-59 0 -123.5 12.5t-105.5 30.5l47 213q39 -16 82 -25t88 -9 q94 0 156.5 43t116.5 141q-86 139 -165 280.5t-146.5 275.5t-124 257t-101.5 225zM342 1816l178 47q35 -145 154 -145q121 0 153 143l176 -47q-8 -63 -35.5 -113.5t-71.5 -84t-101.5 -52t-120.5 -18.5q-66 0 -122.5 18.5t-101.5 53t-73.5 85t-34.5 113.5z" />
<glyph unicode="&#x40f;" horiz-adv-x="1462" d="M170 0v1419h258v-1200h606v1200h258v-1419h-436v-379h-248v379h-438z" />
<glyph unicode="&#x410;" horiz-adv-x="1400" d="M10 0q80 227 151.5 419.5t140.5 364.5t136.5 328t139.5 307h243q72 -152 139.5 -307.5t136 -327.5t141.5 -364.5t153 -419.5h-279q-29 84 -59.5 166t-59.5 168h-598q-29 -86 -58.5 -169t-57.5 -165h-269zM461 543h467q-66 182 -127.5 340t-106.5 262 q-47 -109 -107.5 -264.5t-125.5 -337.5z" />
<glyph unicode="&#x411;" horiz-adv-x="1288" d="M170 27v1392h909v-219h-657v-299h139q154 0 274.5 -24.5t204.5 -79t128 -141.5t44 -212q0 -231 -166.5 -344.5t-476.5 -113.5q-86 0 -194.5 9t-204.5 32zM422 213q18 -2 39.5 -3t50.5 -1h51.5t63.5 2q63 2 121.5 14.5t102.5 39t69.5 69.5t25.5 108q0 74 -26.5 121 t-77.5 75t-124 39t-165 11h-131v-475z" />
<glyph unicode="&#x412;" horiz-adv-x="1345" d="M170 20v1379q45 8 96 15t104.5 11.5t105.5 6.5t99 2q129 0 240 -19.5t191.5 -64.5t126 -119t45.5 -182q0 -100 -48.5 -172t-134.5 -115q129 -43 190.5 -127t61.5 -213q0 -219 -159.5 -328.5t-489.5 -109.5q-113 0 -227.5 7t-200.5 29zM424 207q43 -4 92 -6t90 -2 q80 0 148.5 10t119 35.5t80 68.5t29.5 111q0 121 -88 168t-244 47h-227v-432zM424 842h182q147 0 231.5 42t84.5 150q0 102 -87 145.5t-227 43.5q-59 0 -105 -2t-79 -7v-372z" />
<glyph unicode="&#x413;" horiz-adv-x="1097" d="M170 0v1419h901v-221h-643v-1198h-258z" />
<glyph unicode="&#x414;" horiz-adv-x="1566" d="M27 219h176q92 127 142 267.5t73.5 291t28 311t4.5 330.5h870v-1200h211v-598h-248v379h-1010v-379h-247v598zM487 219h580v979h-369q-6 -123 -14 -252t-29.5 -255t-60.5 -245.5t-107 -226.5z" />
<glyph unicode="&#x415;" horiz-adv-x="1200" d="M170 0v1419h911v-219h-653v-350h582v-215h-582v-416h702v-219h-960z" />
<glyph unicode="&#x416;" horiz-adv-x="1943" d="M41 0q55 100 122.5 203.5t141.5 202t153 185.5t156 159q-147 160 -291.5 335t-267.5 334h310q109 -143 232.5 -296.5t248.5 -305.5v602h252v-602q125 154 253 309.5t228 292.5h307q-131 -168 -272 -338t-283 -329q166 -152 313.5 -349.5t260.5 -402.5h-291 q-119 193 -247 357.5t-269 301.5v-659h-252v659q-145 -145 -270 -305.5t-246 -353.5h-289z" />
<glyph unicode="&#x417;" horiz-adv-x="1208" d="M53 78l76 207q27 -12 65.5 -27.5t88 -30t106.5 -24.5t117 -10q160 0 247 48t87 167q0 70 -30 114.5t-82 69t-124 34t-153 9.5h-160v213h162q59 0 118.5 9t106.5 32.5t75.5 63.5t28.5 102q0 80 -66.5 127t-183.5 47q-113 0 -199.5 -25.5t-146.5 -60.5l-84 207 q66 41 179.5 70.5t253.5 29.5q111 0 205 -23.5t161.5 -72.5t106.5 -123t39 -172q0 -90 -51.5 -171t-155.5 -126q55 -20 104 -51t86 -76t58.5 -103.5t21.5 -132.5q0 -115 -41 -195.5t-116.5 -133t-185.5 -77t-245 -24.5q-76 0 -145.5 10.5t-131 27t-110.5 35.5t-82 36z" />
<glyph unicode="&#x418;" horiz-adv-x="1515" d="M170 0v1419h256v-942q70 111 159 239t184 255t189.5 244.5t176.5 203.5h211v-1419h-254v1016q-86 -102 -181.5 -230.5t-187.5 -264.5t-178 -270t-156 -251h-219z" />
<glyph unicode="&#x419;" horiz-adv-x="1515" d="M170 0v1419h256v-942q70 111 159 239t184 255t189.5 244.5t176.5 203.5h211v-1419h-254v1016q-86 -102 -181.5 -230.5t-187.5 -264.5t-178 -270t-156 -251h-219zM440 1820l178 47q35 -145 154 -145q121 0 153 143l176 -47q-8 -63 -35.5 -113.5t-71.5 -84t-101.5 -52 t-120.5 -18.5q-66 0 -122.5 18.5t-101.5 53t-73.5 85t-34.5 113.5z" />
<glyph unicode="&#x41a;" horiz-adv-x="1333" d="M170 0v1419h258v-585q68 68 141.5 144.5t146 155t138.5 152.5t119 133h309q-68 -78 -143.5 -161.5t-155.5 -168.5t-161 -169t-158 -160q86 -66 175 -153t175 -186t164.5 -207t144.5 -214h-305q-53 82 -123 172t-146.5 174t-158.5 160t-162 131v-637h-258z" />
<glyph unicode="&#x41b;" horiz-adv-x="1519" d="M20 201q74 8 129.5 28.5t96.5 54t71.5 84t53.5 117.5q55 160 73.5 399.5t18.5 534.5h887v-1419h-260v1198h-379q-6 -139 -14.5 -283.5t-30 -278.5t-62.5 -253t-112.5 -208t-179 -142t-263.5 -58z" />
<glyph unicode="&#x41c;" horiz-adv-x="1810" d="M131 0q8 176 19.5 364.5t24.5 374t29.5 359.5t35.5 321h239q45 -78 100.5 -190.5t113 -236.5t113.5 -252t103 -236q47 109 102.5 236.5t113 251.5t112.5 236.5t100 190.5h234q18 -156 34.5 -331t30 -358t24.5 -368.5t19 -361.5h-254q-8 248 -19 510t-34 508 q-23 -47 -53.5 -112.5t-65 -142.5t-70.5 -159t-70 -158.5t-62.5 -143t-49.5 -114.5h-192q-20 47 -49 115t-62.5 144.5t-69.5 158.5t-71 158t-65.5 142.5t-53.5 111.5q-23 -246 -34 -508t-19 -510h-254z" />
<glyph unicode="&#x41d;" horiz-adv-x="1472" d="M170 0v1419h258v-567h616v567h259v-1419h-259v629h-616v-629h-258z" />
<glyph unicode="&#x41e;" horiz-adv-x="1601" d="M113 711q0 182 55 320t150.5 232.5t220.5 141.5t264 47t264 -47t218 -141.5t148.5 -232.5t55.5 -320t-54.5 -321.5t-147.5 -233t-218 -140.5t-266 -47t-267 47t-219.5 140.5t-148.5 232.5t-55 322zM381 711q0 -117 28.5 -212.5t83 -162t132 -103t176.5 -36.5 q96 0 174 36.5t132 103t83 162t29 212.5t-29 212t-83 161.5t-132 103.5t-174 37q-98 0 -176 -37t-132.5 -104.5t-83 -161.5t-28.5 -211z" />
<glyph unicode="&#x41f;" horiz-adv-x="1462" d="M170 0v1419h1122v-1419h-258v1198h-606v-1198h-258z" />
<glyph unicode="&#x420;" horiz-adv-x="1275" d="M170 0v1399q90 20 199.5 27.5t201.5 7.5q309 0 474 -113t165 -352q0 -125 -44 -214t-128 -145.5t-204.5 -83t-276.5 -26.5h-129v-500h-258zM428 721h125q186 0 286.5 52t100.5 198q0 70 -26.5 117t-73.5 73.5t-111.5 37.5t-138.5 11q-98 0 -162 -6v-483z" />
<glyph unicode="&#x421;" horiz-adv-x="1306" d="M117 711q0 178 54 315t148.5 232.5t221.5 144.5t272 49q88 0 159.5 -13.5t125 -29.5t88.5 -34.5t49 -26.5l-76 -211q-49 31 -140 58.5t-198 27.5q-92 0 -172 -32t-138 -95.5t-91 -159.5t-33 -223q0 -113 25.5 -207t79 -163t135.5 -106.5t196 -37.5q137 0 223.5 27.5 t133.5 52.5l69 -211q-25 -16 -66.5 -33t-99 -32t-129 -24.5t-153.5 -9.5q-160 0 -287 49.5t-215 144.5t-135 232t-47 316z" />
<glyph unicode="&#x422;" horiz-adv-x="1185" d="M27 1196v223h1132v-223h-436v-1196h-260v1196h-436z" />
<glyph unicode="&#x423;" horiz-adv-x="1261" d="M43 1419h289q33 -84 75 -180t90 -198.5t101 -209t107 -213.5q74 182 141 389t127 412h278q-49 -152 -98 -286t-97 -255.5t-96.5 -233t-95.5 -220.5q-51 -115 -105 -200t-119 -140t-143.5 -82t-177.5 -27q-59 0 -123.5 12.5t-105.5 30.5l47 213q39 -16 82 -25t88 -9 q94 0 156.5 43t116.5 141q-86 139 -165 280.5t-146.5 275.5t-124 257t-101.5 225z" />
<glyph unicode="&#x424;" horiz-adv-x="1771" d="M102 756q0 123 47.5 228.5t134.5 184t207.5 125.5t268.5 56v161h252v-161q147 -8 268 -55.5t207 -126t134 -184t48 -228.5q0 -125 -48 -230.5t-134 -183.5t-207 -123t-268 -49v-170h-252v170q-147 4 -268 49t-208 123t-134.5 183.5t-47.5 230.5zM365 758 q0 -84 27.5 -151.5t79.5 -116t125 -76t163 -29.5v750q-180 -10 -287.5 -110.5t-107.5 -266.5zM1012 385q88 2 161.5 29.5t125 76t80 116t28.5 151.5q0 166 -107.5 266t-287.5 111v-750z" />
<glyph unicode="&#x425;" horiz-adv-x="1345" d="M41 0q92 174 213 357.5t262 383.5l-455 678h308l313 -485l309 485h295l-448 -676q156 -211 275.5 -399t201.5 -344h-303q-59 121 -149.5 266.5t-188.5 280.5q-41 -53 -89 -127t-96.5 -150.5t-89.5 -148.5t-65 -121h-293z" />
<glyph unicode="&#x426;" horiz-adv-x="1540" d="M170 0v1419h258v-1200h606v1200h258v-1200h213v-598h-248v379h-1087z" />
<glyph unicode="&#x427;" horiz-adv-x="1353" d="M113 997v422h258v-413q0 -170 73.5 -239t235.5 -69q66 0 132.5 8.5t113.5 16.5v696h258v-1419h-258v502q-53 -10 -127 -17.5t-150 -7.5q-143 0 -244.5 30t-166 93.5t-95 161.5t-30.5 235z" />
<glyph unicode="&#x428;" horiz-adv-x="2050" d="M170 0v1419h258v-1200h467v1200h260v-1200h467v1200h258v-1419h-1710z" />
<glyph unicode="&#x429;" horiz-adv-x="2127" d="M170 0v1419h258v-1200h467v1200h260v-1200h467v1200h258v-1200h213v-598h-248v379h-1675z" />
<glyph unicode="&#x42a;" horiz-adv-x="1511" d="M27 1198v221h618v-510q35 4 65.5 4h63.5q664 0 664 -467q0 -227 -171 -344.5t-481 -117.5q-86 0 -193.5 10t-205.5 33v1171h-360zM645 209q29 -2 67 -3t91 -1q72 0 138.5 11t116.5 39t80.5 74t30.5 117q0 72 -29.5 119t-84 76t-130 40t-169.5 11h-53.5t-57.5 -4v-479z " />
<glyph unicode="&#x42b;" horiz-adv-x="1824" d="M170 27v1392h258v-510q31 4 61.5 4h59.5q324 0 487.5 -115.5t163.5 -351.5q0 -115 -44 -200.5t-127 -144t-200.5 -88t-265.5 -29.5q-86 0 -190.5 10t-202.5 33zM428 209q29 -4 62.5 -4h91.5q70 0 134 11t111 39t76 74t29 117q0 72 -27.5 119t-79 76t-124 40t-164.5 11 h-52.5t-56.5 -4v-479zM1397 0v1419h258v-1419h-258z" />
<glyph unicode="&#x42c;" horiz-adv-x="1294" d="M170 27v1392h258v-510q35 4 65.5 4h63.5q664 0 664 -467q0 -227 -171 -344.5t-481 -117.5q-86 0 -193.5 10t-205.5 33zM428 209q29 -2 66.5 -3t91.5 -1q72 0 138.5 11t116.5 39t80.5 74t30.5 117q0 72 -29.5 119t-84 76t-130 40t-169.5 11h-53.5t-57.5 -4v-479z" />
<glyph unicode="&#x42d;" horiz-adv-x="1290" d="M45 68l70 211q49 -25 134 -52.5t222 -27.5q193 0 301.5 109.5t130.5 303.5h-610v219h604q-23 188 -128 292t-298 104q-129 0 -216 -29t-138 -55l-72 205q72 41 184.5 72.5t259.5 31.5q150 0 276 -47t218 -140.5t143.5 -232.5t51.5 -321q0 -186 -50.5 -325.5t-140.5 -232 t-218 -138.5t-282 -46q-143 0 -258.5 29t-183.5 70z" />
<glyph unicode="&#x42e;" horiz-adv-x="2162" d="M170 0v1419h258v-569h295q20 147 80.5 260t148.5 188.5t198.5 114.5t231.5 39q135 0 256 -47t213.5 -141.5t145.5 -232.5t53 -320t-53 -320.5t-144.5 -231.5t-212 -140.5t-258.5 -47.5q-129 0 -244.5 42t-204.5 125t-146.5 206t-69.5 287h-289v-631h-258zM981 711 q0 -238 105.5 -376t295.5 -138t295 138t105 376q0 117 -26.5 212t-78 162.5t-126 103.5t-169.5 36q-94 0 -168.5 -36t-126 -103.5t-79 -163t-27.5 -211.5z" />
<glyph unicode="&#x42f;" horiz-adv-x="1347" d="M68 0q37 80 79.5 162t87 158.5t88.5 143t80 114.5q-139 51 -204.5 151t-65.5 248q0 115 46 201t131 142t205.5 85t270.5 29q84 0 190.5 -7.5t201.5 -27.5v-1399h-258v532h-150q-27 0 -55.5 1.5t-52.5 5.5q-41 -49 -82 -111.5t-81 -133.5t-80 -145.5t-77 -148.5h-274z M403 979q0 -70 28 -115t80 -71.5t127 -37t169 -10.5h113v459q-72 6 -152 6q-78 0 -144.5 -11t-115.5 -37.5t-77 -72t-28 -110.5z" />
<glyph unicode="&#x430;" horiz-adv-x="1093" d="M82 324q0 92 36 155.5t97 103.5t142 57t169 17q41 0 86 -5t97 -17v41q0 43 -10.5 82t-36 68.5t-67.5 46t-106 16.5q-86 0 -157.5 -12.5t-116.5 -28.5l-31 201q47 16 137.5 32.5t192.5 16.5q123 0 207 -31t134 -86t71.5 -134t21.5 -173v-649q-57 -12 -173 -30t-261 -18 q-96 0 -176 18.5t-136.5 59.5t-88 106.5t-31.5 162.5zM330 330q0 -88 55.5 -122t149.5 -34q115 0 174 12v275q-20 6 -59.5 12t-86.5 6q-41 0 -83 -6t-75.5 -22.5t-54 -46t-20.5 -74.5z" />
<glyph unicode="&#x431;" horiz-adv-x="1236" d="M121 649q0 201 33.5 355.5t110.5 265t201 179.5t302 95q92 14 154.5 22.5t126.5 22.5l28 -217q-20 -4 -43.5 -8t-56.5 -8t-77 -9.5t-101 -11.5q-88 -10 -158 -33.5t-121 -67.5t-84 -111.5t-47 -164.5q63 41 138 63.5t147 22.5q213 0 338 -135t125 -391q0 -123 -35 -223 t-100.5 -172t-157.5 -112t-209 -40q-145 0 -243.5 48.5t-158 137.5t-86 214t-26.5 278zM377 606q0 -92 12 -170t43 -133t80 -86t123 -31q63 0 110.5 25t78 70t46 105t15.5 132q0 61 -13.5 117.5t-43 100.5t-79 71t-120.5 27q-70 0 -138.5 -25t-109.5 -68q-4 -27 -4 -64.5 v-70.5z" />
<glyph unicode="&#x432;" horiz-adv-x="1165" d="M158 23v1034q33 8 82 15t105 12.5t117.5 8.5t121.5 3q217 0 337.5 -79t120.5 -220q0 -74 -36.5 -131.5t-96.5 -85.5q74 -29 127.5 -90.5t53.5 -174.5q0 -162 -127 -248.5t-379 -86.5q-59 0 -121 4t-118 10t-105.5 13t-81.5 16zM403 184q25 -4 81.5 -7t105.5 -3 q111 0 183.5 31t72.5 117q0 84 -66.5 115.5t-173.5 31.5h-203v-285zM403 641h187q92 0 152.5 26.5t60.5 106.5q0 39 -19.5 63.5t-52.5 39t-76 19.5t-90 5q-37 0 -85 -2t-77 -6v-252z" />
<glyph unicode="&#x433;" horiz-adv-x="894" d="M158 0v1071h710v-205h-462v-866h-248z" />
<glyph unicode="&#x434;" horiz-adv-x="1296" d="M27 203h123q63 84 99 187.5t52 217t20.5 232t6.5 231.5h768v-868h164v-506h-222v303h-792v-303h-219v506zM408 203h440v663h-291q-4 -84 -10 -171t-22.5 -172t-44 -166t-72.5 -154z" />
<glyph unicode="&#x435;" horiz-adv-x="1169" d="M98 530q0 141 42 248t112 177.5t160 106.5t184 36q221 0 345 -137.5t124 -409.5q0 -20 -1 -46t-3 -46h-707q10 -129 91 -200t235 -71q90 0 165 16.5t118 35.5l32 -203q-20 -10 -56 -21.5t-82 -20.5t-99 -15.5t-109 -6.5q-141 0 -245.5 42t-172 117t-100.5 176t-33 222z M356 641h461q0 51 -14.5 97t-42 80t-67.5 53.5t-95 19.5q-57 0 -100 -21.5t-73 -56.5t-46.5 -80t-22.5 -92z" />
<glyph unicode="&#x436;" horiz-adv-x="1640" d="M20 0q94 158 215 304.5t244 270.5q-117 125 -227.5 255.5t-194.5 240.5h285q63 -86 148 -190.5t210 -255.5v446h240v-446q129 150 213 256t147 190h281q-78 -111 -187.5 -240t-230.5 -253q135 -135 249 -276.5t210 -301.5h-276q-41 61 -89.5 129t-100.5 134.5t-107.5 128 t-108.5 114.5v-506h-240v506q-53 -55 -108 -118.5t-107.5 -130.5t-100.5 -132.5t-87 -124.5h-277z" />
<glyph unicode="&#x437;" horiz-adv-x="1024" d="M84 39l43 201q39 -16 125 -38t203 -22q225 0 225 131q0 47 -20.5 76t-51 44t-69.5 20.5t-76 5.5h-205v184h203q76 0 130 27.5t54 97.5q0 57 -52 91t-147 34q-41 0 -84 -5t-82.5 -13.5t-72.5 -17.5t-51 -17l-45 200q27 10 65.5 20.5t83.5 18.5t95.5 13.5t101.5 5.5 q88 0 168 -16.5t139 -53.5t95 -94.5t36 -136.5q0 -86 -47 -145.5t-109 -88.5q92 -35 141.5 -102.5t49.5 -171.5q0 -84 -36 -143.5t-98.5 -97.5t-146.5 -55.5t-182 -17.5q-119 0 -221.5 19.5t-161.5 46.5z" />
<glyph unicode="&#x438;" horiz-adv-x="1253" d="M158 0v1071h243q0 -119 -1 -226.5t-1 -195.5t-1 -153.5t-1 -100.5q57 88 119 181.5t124 182.5t123.5 169t119.5 143h213v-1071h-246q0 117 1 231.5t2 213t2 171t1 107.5q-61 -80 -126.5 -176t-130 -192.5t-122 -188.5t-100.5 -166h-219z" />
<glyph unicode="&#x439;" horiz-adv-x="1253" d="M158 0v1071h243q0 -119 -1 -226.5t-1 -195.5t-1 -153.5t-1 -100.5q57 88 119 181.5t124 182.5t123.5 169t119.5 143h213v-1071h-246q0 117 1 231.5t2 213t2 171t1 107.5q-61 -80 -126.5 -176t-130 -192.5t-122 -188.5t-100.5 -166h-219zM297 1501l178 47 q35 -145 154 -145q121 0 153 143l176 -47q-8 -63 -35.5 -113.5t-71.5 -84t-101.5 -52t-120.5 -18.5q-66 0 -122.5 18.5t-101.5 53t-73.5 85t-34.5 113.5z" />
<glyph unicode="&#x43a;" horiz-adv-x="1146" d="M158 0v1071h248v-430q47 47 102 105.5t109.5 118t103.5 113.5t82 93h291q-45 -53 -103.5 -116.5t-121 -130t-123 -129t-109.5 -111.5q63 -53 132 -124t135.5 -150t123.5 -159.5t96 -150.5h-286q-39 61 -91.5 129t-109.5 132.5t-116.5 121.5t-114.5 98v-481h-248z" />
<glyph unicode="&#x43b;" horiz-adv-x="1255" d="M20 186q104 20 162 66.5t88 118.5q25 53 38.5 120.5t20.5 142.5t9 152.5t2 151.5v133h758v-1071h-248v866h-272q-2 -90 -6.5 -187t-19.5 -191.5t-48 -180.5t-91.5 -154.5t-145.5 -114.5t-212 -58z" />
<glyph unicode="&#x43c;" horiz-adv-x="1529" d="M131 0q4 119 12.5 257t19.5 280.5t23.5 279.5t26.5 254h215q78 -125 158 -294t178 -384q102 219 186 396.5t150 281.5h217q14 -117 27.5 -254t23.5 -279.5t18.5 -280.5t12.5 -257h-246q-4 168 -13.5 347t-21.5 355q-31 -61 -66.5 -137t-70.5 -153.5t-67.5 -150.5 t-57.5 -128h-184q-25 55 -58.5 129t-68.5 152t-70.5 152.5t-66.5 135.5q-6 -86 -12.5 -179t-10.5 -185t-8 -178t-6 -160h-240z" />
<glyph unicode="&#x43d;" horiz-adv-x="1214" d="M158 0v1071h248v-418h403v418h248v-1071h-248v449h-403v-449h-248z" />
<glyph unicode="&#x43e;" horiz-adv-x="1224" d="M98 537q0 127 38 230t106.5 177t163 114t206.5 40q113 0 208 -40t163 -114t105.5 -177t37.5 -230t-36.5 -231.5t-104 -178.5t-163 -115t-210.5 -41t-209 41t-161.5 115t-105.5 178.5t-38 231.5zM352 537q0 -162 68.5 -256.5t191.5 -94.5t191.5 94.5t68.5 256.5 q0 160 -68.5 253t-191.5 93t-191.5 -93.5t-68.5 -252.5z" />
<glyph unicode="&#x43f;" horiz-adv-x="1206" d="M158 0v1071h891v-1071h-248v864h-395v-864h-248z" />
<glyph unicode="&#x440;" horiz-adv-x="1220" d="M158 -379v1415q76 20 186.5 39t233.5 19q127 0 227 -39t171 -112t108.5 -176t37.5 -232q0 -123 -31.5 -225.5t-91 -176.5t-148.5 -115t-202 -41q-76 0 -139.5 18.5t-103.5 41.5v-416h-248zM406 252q33 -23 87 -42.5t115 -19.5q135 0 197.5 92t62.5 248q0 166 -74.5 258.5 t-240.5 92.5q-35 0 -73 -3.5t-74 -13.5v-612z" />
<glyph unicode="&#x441;" horiz-adv-x="966" d="M98 535q0 119 37 222t105.5 179t167 119t221.5 43q152 0 286 -56l-53 -202q-43 18 -97 30.5t-116 12.5q-145 0 -221 -91.5t-76 -256.5q0 -160 72 -253.5t242 -93.5q63 0 124.5 12.5t106.5 30.5l35 -204q-41 -20 -124 -37t-171 -17q-137 0 -238.5 42t-168 117t-99.5 178.5 t-33 224.5z" />
<glyph unicode="&#x442;" horiz-adv-x="991" d="M27 864v207h938v-207h-347v-864h-247v864h-344z" />
<glyph unicode="&#x443;" horiz-adv-x="1062" d="M-2 -344l45 199q74 -29 145 -29q96 0 150.5 46t95.5 142q-117 225 -224.5 491.5t-191.5 565.5h265q20 -86 49.5 -186.5t64.5 -203.5t74 -205.5t78 -190.5q66 182 123 388t104 398h256q-166 -610 -385 -1106q-41 -92 -84 -157.5t-96 -108.5t-118.5 -62.5t-151.5 -19.5 q-57 0 -113.5 12.5t-85.5 26.5z" />
<glyph unicode="&#x444;" horiz-adv-x="1595" d="M96 532q0 115 41 209.5t116 164t182.5 111.5t242.5 52v477l240 43v-520q117 -6 222 -43t185 -104.5t127 -165t47 -224.5q0 -129 -46 -227t-126 -164.5t-185.5 -103.5t-223.5 -43v-373h-240v373q-131 6 -238.5 47t-183.5 111.5t-118 167t-42 212.5zM348 530 q0 -158 91 -237.5t239 -89.5v659q-145 -8 -237.5 -91t-92.5 -241zM918 203q66 2 126 21.5t105 60.5t71.5 102.5t26.5 144.5q0 84 -26.5 145.5t-71.5 101.5t-105.5 60.5t-125.5 22.5v-659z" />
<glyph unicode="&#x445;" horiz-adv-x="1083" d="M27 0q31 61 73.5 131t92 142.5t101.5 145.5t103 138l-354 514h272l228 -350l227 350h260l-352 -506q111 -143 212 -289.5t167 -275.5h-269q-18 39 -47.5 89t-63.5 104.5t-71 107.5t-71 100q-72 -92 -140.5 -203.5t-113.5 -197.5h-254z" />
<glyph unicode="&#x446;" horiz-adv-x="1245" d="M158 0v1071h248v-868h393v868h248v-868h161v-506h-219v303h-831z" />
<glyph unicode="&#x447;" horiz-adv-x="1126" d="M88 737v334h248v-332q0 -98 56.5 -138t154.5 -40q47 0 93 5t81 14v491h248v-1071h-248v383q-37 -6 -96.5 -15.5t-106.5 -9.5q-96 0 -175 18.5t-136 62.5t-88 117t-31 181z" />
<glyph unicode="&#x448;" horiz-adv-x="1730" d="M158 0v1071h248v-868h335v868h248v-868h336v868h248v-1071h-1415z" />
<glyph unicode="&#x449;" horiz-adv-x="1773" d="M158 0v1071h248v-868h335v868h248v-868h336v868h248v-868h164v-506h-221v303h-1358z" />
<glyph unicode="&#x44a;" horiz-adv-x="1269" d="M39 864v207h512v-395q31 8 90 14t119 6q92 0 173 -20.5t140.5 -64.5t94 -112.5t34.5 -162.5q0 -96 -32.5 -164t-94 -111t-146.5 -63.5t-190 -20.5q-121 0 -225 12.5t-211 37.5v837h-264zM551 182q27 -4 79 -7t103 -3q104 0 162.5 40t58.5 128q0 45 -19.5 75.5t-51 50 t-74.5 28t-90 8.5q-43 0 -90 -3t-78 -12v-305z" />
<glyph unicode="&#x44b;" horiz-adv-x="1619" d="M158 27v1044h248v-395q31 8 89 14t113 6q88 0 167 -20.5t137.5 -64.5t92 -112.5t33.5 -162.5q0 -96 -32.5 -164t-92 -111t-142.5 -63.5t-183 -20.5q-117 0 -220.5 12.5t-209.5 37.5zM406 182q27 -4 78 -7t98 -3q96 0 152.5 40t56.5 128q0 45 -18.5 75.5t-50.5 50t-72 28 t-83 8.5q-39 0 -85 -3t-76 -12v-305zM1214 0v1071h248v-1071h-248z" />
<glyph unicode="&#x44c;" horiz-adv-x="1124" d="M158 27v1044h248v-395q31 8 90 14t118 6q92 0 173 -20.5t140.5 -64.5t94.5 -112.5t35 -162.5q0 -96 -33 -164t-94.5 -111t-146.5 -63.5t-189 -20.5q-121 0 -225.5 12.5t-210.5 37.5zM406 182q27 -4 79 -7t103 -3q104 0 162.5 40t58.5 128q0 45 -19.5 75.5t-51 50 t-74.5 28t-91 8.5q-43 0 -90 -3t-77 -12v-305z" />
<glyph unicode="&#x44d;" horiz-adv-x="1052" d="M63 37l43 201q47 -20 127 -36t158 -16q135 0 216 65.5t95 201.5h-421v186h419q-16 127 -93 188.5t-206 61.5q-80 0 -142 -13.5t-116 -31.5l-49 194q68 29 154 44.5t166 15.5q127 0 227 -41t170 -115t106.5 -176t36.5 -225q0 -129 -35.5 -233.5t-105.5 -178.5t-169 -114 t-226 -40q-111 0 -199 16.5t-156 45.5z" />
<glyph unicode="&#x44e;" horiz-adv-x="1726" d="M158 0v1071h248v-422h229q14 102 58 185.5t108.5 141.5t147.5 90t177 32q106 0 198.5 -40t160 -114t105.5 -177t38 -230q0 -129 -38 -233.5t-105.5 -178.5t-160 -114t-198.5 -40q-98 0 -183 34t-150.5 96.5t-107.5 150.5t-54 197h-225v-449h-248zM879 537 q0 -160 66.5 -255.5t180.5 -95.5q115 0 181.5 95.5t66.5 255.5t-66.5 253t-181.5 93t-181 -93.5t-66 -252.5z" />
<glyph unicode="&#x44f;" horiz-adv-x="1159" d="M57 0q55 127 123 243.5t127 198.5q-100 43 -146 116t-46 171q0 90 33.5 158.5t95 115t147.5 70t191 23.5q121 0 234.5 -14.5t184.5 -32.5v-1049h-247v397h-123h-49.5t-46.5 2q-66 -98 -121.5 -201.5t-102.5 -197.5h-254zM360 733q0 -45 17.5 -74.5t48.5 -48t72 -25.5 t88 -7h168v313q-23 4 -70 7t-96 3q-227 0 -228 -168z" />
<glyph unicode="&#x450;" horiz-adv-x="1169" d="M98 530q0 141 42 248t112 177.5t160 106.5t184 36q221 0 345 -137.5t124 -409.5q0 -20 -1 -46t-3 -46h-707q10 -129 91 -200t235 -71q90 0 165 16.5t118 35.5l32 -203q-20 -10 -56 -21.5t-82 -20.5t-99 -15.5t-109 -6.5q-141 0 -245.5 42t-172 117t-100.5 176t-33 222z M324 1511l157 144l297 -359l-123 -110zM356 641h461q0 51 -14.5 97t-42 80t-67.5 53.5t-95 19.5q-57 0 -100 -21.5t-73 -56.5t-46.5 -80t-22.5 -92z" />
<glyph unicode="&#x451;" horiz-adv-x="1169" d="M98 530q0 141 42 248t112 177.5t160 106.5t184 36q221 0 345 -137.5t124 -409.5q0 -20 -1 -46t-3 -46h-707q10 -129 91 -200t235 -71q90 0 165 16.5t118 35.5l32 -203q-20 -10 -56 -21.5t-82 -20.5t-99 -15.5t-109 -6.5q-141 0 -245.5 42t-172 117t-100.5 176t-33 222z M246 1384q0 63 40.5 101.5t96.5 38.5q55 0 97 -38t42 -102q0 -63 -42 -100t-97 -37t-96 37t-41 100zM356 641h461q0 51 -14.5 97t-42 80t-67.5 53.5t-95 19.5q-57 0 -100 -21.5t-73 -56.5t-46.5 -80t-22.5 -92zM667 1384q0 63 42 101.5t98 38.5q55 0 96 -38t41 -102 q0 -63 -41 -100t-96 -37t-97.5 37t-42.5 100z" />
<glyph unicode="&#x452;" horiz-adv-x="1179" d="M6 1239v166h139v143l248 41v-184h328v-166h-328v-199q41 14 95.5 24.5t107.5 10.5q127 0 212 -34.5t136 -98t73.5 -153t22.5 -195.5v-592q0 -96 -17 -168t-57 -120t-105.5 -71.5t-164.5 -23.5q-29 0 -69.5 5t-75.5 16l27 184q20 -6 43.5 -9t46.5 -3q68 0 96.5 42 t28.5 126v565q0 86 -11.5 146.5t-37 98t-68.5 55t-107 17.5q-49 0 -100 -10t-76 -18v-834h-248v1239h-139z" />
<glyph unicode="&#x453;" horiz-adv-x="894" d="M158 0v1071h710v-205h-462v-866h-248zM374 1296l302 359l155 -146l-334 -323z" />
<glyph unicode="&#x454;" horiz-adv-x="1052" d="M98 541q0 123 37 225t106.5 176t170 115t227.5 41q80 0 166 -15.5t153 -44.5l-49 -194q-53 18 -115.5 31.5t-142.5 13.5q-129 0 -205.5 -61.5t-93.5 -188.5h420v-186h-422q14 -135 95 -201t217 -66q78 0 157.5 15.5t126.5 36.5l43 -201q-68 -29 -156 -45.5t-198 -16.5 q-127 0 -226.5 40t-169 114t-105.5 178.5t-36 233.5z" />
<glyph unicode="&#x455;" horiz-adv-x="935" d="M76 35l43 207q55 -23 132 -43.5t175 -20.5t143 23.5t45 81.5q0 53 -48 88t-158 75q-68 25 -124.5 52.5t-97.5 64.5t-64.5 89.5t-23.5 127.5q0 147 108.5 232.5t295.5 85.5q94 0 180 -17.5t129 -33.5l-45 -201q-41 18 -104.5 33.5t-147.5 15.5q-76 0 -123 -25.5t-47 -78.5 q0 -27 9 -47.5t32 -38t59.5 -35t90.5 -35.5q88 -33 149 -64.5t101 -71.5t58.5 -91.5t18.5 -122.5q0 -154 -113.5 -233t-324.5 -79q-141 0 -227 23.5t-121 38.5z" />
<glyph unicode="&#x456;" horiz-adv-x="565" d="M129 1384q0 72 45 113t109 41q61 0 106 -41t45 -113q0 -70 -45 -110.5t-106 -40.5q-63 0 -108.5 41t-45.5 110zM160 0v1071h248v-1071h-248z" />
<glyph unicode="&#x457;" horiz-adv-x="565" d="M-57 1384q0 63 40.5 101.5t96.5 38.5q55 0 97 -38t42 -102q0 -63 -42 -100t-97 -37t-96 37t-41 100zM160 0v1071h248v-1071h-248zM364 1384q0 63 42 101.5t98 38.5q55 0 96 -38t41 -102q0 -63 -41 -100t-96 -37t-97.5 37t-42.5 100z" />
<glyph unicode="&#x458;" horiz-adv-x="563" d="M-139 -356l33 202q45 -14 108 -14q86 0 121 50t35 151v1038h248v-1042q0 -209 -100 -309.5t-286 -100.5q-27 0 -74.5 5t-84.5 20zM127 1384q0 72 45 113t109 41q61 0 106 -41t45 -113q0 -70 -45 -110.5t-106 -40.5q-63 0 -108.5 41t-45.5 110z" />
<glyph unicode="&#x459;" horiz-adv-x="1798" d="M20 186q104 20 162 66.5t88 118.5q25 53 38.5 122.5t20.5 146.5t9 157t2 153v121h758v-395q31 8 88 14t117 6q82 0 158.5 -19.5t137 -62.5t96.5 -110.5t36 -161.5q0 -96 -32 -166t-91.5 -114t-142.5 -64.5t-185 -20.5q-117 0 -221.5 12.5t-208.5 37.5v839h-272 q-2 -90 -6.5 -187t-19.5 -191.5t-48 -180.5t-91.5 -154.5t-145.5 -114.5t-212 -58zM1098 182q27 -4 78 -7t98 -3q96 0 152.5 40t56.5 128q0 45 -18.5 75.5t-50.5 50t-71.5 28t-82.5 8.5q-39 0 -85.5 -3t-76.5 -12v-305z" />
<glyph unicode="&#x45a;" horiz-adv-x="1757" d="M158 0v1071h248v-416h403v416h248v-395q31 8 88 14t117 6q82 0 158.5 -19.5t137 -62.5t96.5 -110.5t36 -161.5q0 -96 -32 -166t-91.5 -114t-142.5 -64.5t-185 -20.5q-117 0 -221.5 12.5t-208.5 37.5v424h-403v-451h-248zM1057 182q27 -4 78 -7t98 -3q96 0 152.5 40 t56.5 128q0 45 -18.5 75.5t-50.5 50t-71.5 28t-82.5 8.5q-39 0 -85.5 -3t-76.5 -12v-305z" />
<glyph unicode="&#x45b;" horiz-adv-x="1191" d="M18 1239v166h140v143l248 41v-184h327v-166h-327v-199q41 14 95 24.5t107 10.5q129 0 214 -35.5t136.5 -100.5t73 -155t21.5 -200v-584h-248v545q0 86 -11.5 146.5t-37 98t-68.5 55t-106 17.5q-49 0 -100.5 -10t-75.5 -18v-834h-248v1239h-140z" />
<glyph unicode="&#x45c;" horiz-adv-x="1146" d="M158 0v1071h248v-430q47 47 102 105.5t109.5 118t103.5 113.5t82 93h291q-45 -53 -103.5 -116.5t-121 -130t-123 -129t-109.5 -111.5q63 -53 132 -124t135.5 -150t123.5 -159.5t96 -150.5h-286q-39 61 -91.5 129t-109.5 132.5t-116.5 121.5t-114.5 98v-481h-248z M436 1296l302 359l155 -146l-334 -323z" />
<glyph unicode="&#x45d;" horiz-adv-x="1253" d="M158 0v1071h243q0 -119 -1 -226.5t-1 -195.5t-1 -153.5t-1 -100.5q57 88 119 181.5t124 182.5t123.5 169t119.5 143h213v-1071h-246q0 117 1 231.5t2 213t2 171t1 107.5q-61 -80 -126.5 -176t-130 -192.5t-122 -188.5t-100.5 -166h-219zM324 1511l157 144l297 -359 l-123 -110z" />
<glyph unicode="&#x45e;" horiz-adv-x="1062" d="M-2 -344l45 199q74 -29 145 -29q96 0 150.5 46t95.5 142q-117 225 -224.5 491.5t-191.5 565.5h265q20 -86 49.5 -186.5t64.5 -203.5t74 -205.5t78 -190.5q66 182 123 388t104 398h256q-166 -610 -385 -1106q-41 -92 -84 -157.5t-96 -108.5t-118.5 -62.5t-151.5 -19.5 q-57 0 -113.5 12.5t-85.5 26.5zM207 1501l178 47q35 -145 154 -145q121 0 153 143l176 -47q-8 -63 -35.5 -113.5t-71.5 -84t-101.5 -52t-120.5 -18.5q-66 0 -122.5 18.5t-101.5 53t-73.5 85t-34.5 113.5z" />
<glyph unicode="&#x45f;" horiz-adv-x="1204" d="M158 0v1071h248v-868h393v868h248v-1071h-336v-303h-222v303h-331z" />
<glyph unicode="&#x462;" horiz-adv-x="1488" d="M27 1139v209h352v163h258v-163h405v-209h-405v-219h131q315 0 483 -112t168 -357q0 -231 -170 -349t-471 -118q-86 0 -193.5 10t-205.5 33v1112h-352zM637 209q23 -2 64 -3t98 -1q72 0 135 11t111.5 39t77 76t28.5 120q0 147 -103.5 199t-293.5 52h-117v-493z" />
<glyph unicode="&#x463;" horiz-adv-x="1243" d="M27 887v184h262v477l248 41v-518h376v-184h-376v-211q31 8 90 14t118 6q92 0 173 -20.5t140.5 -64.5t94.5 -112.5t35 -162.5q0 -96 -33 -164t-94.5 -111t-146.5 -63.5t-189 -20.5q-121 0 -225.5 12.5t-210.5 37.5v860h-262zM537 182q27 -4 79 -7t103 -3q104 0 162.5 40 t58.5 128q0 45 -19.5 75.5t-51 50t-74.5 28t-90 8.5q-43 0 -90.5 -3t-77.5 -12v-305z" />
<glyph unicode="&#x472;" horiz-adv-x="1601" d="M113 711q0 182 55 320t150.5 232.5t220.5 141.5t264 47t264 -47t218 -141.5t148.5 -232.5t55.5 -320t-54.5 -321.5t-147.5 -233t-218 -140.5t-266 -47t-267 47t-219.5 140.5t-148.5 232.5t-55 322zM383 782q47 39 103.5 60.5t125.5 21.5q70 0 126.5 -18.5t107.5 -42 t102 -42t109 -18.5q41 0 81 12.5t76 35.5q-20 201 -127.5 317.5t-285.5 116.5q-90 0 -163 -32t-127 -89t-87 -139t-41 -183zM391 569q33 -174 138.5 -273t271.5 -99t271.5 101t135.5 280q-78 -43 -170 -43q-70 0 -126 18t-108 41.5t-103.5 42t-108.5 18.5 q-59 0 -109.5 -23.5t-91.5 -62.5z" />
<glyph unicode="&#x473;" horiz-adv-x="1224" d="M98 537q0 127 38 230t106.5 177t163 114t206.5 40q113 0 208 -40t163 -114t105.5 -177t37.5 -230t-36.5 -231.5t-104 -178.5t-163 -115t-210.5 -41t-209 41t-161.5 115t-105.5 178.5t-38 231.5zM354 469q14 -133 80.5 -208t177.5 -75q106 0 172 71t82 198 q-59 -35 -121 -35q-41 0 -77.5 14.5t-71.5 32.5t-68.5 32.5t-66.5 14.5q-31 0 -58.5 -13.5t-48.5 -31.5zM358 625q27 18 59 29.5t66 11.5q41 0 78 -14.5t72 -33t67.5 -33t67.5 -14.5q29 0 53.5 10.5t46.5 26.5q-16 129 -81.5 202t-174.5 73q-104 0 -170.5 -69t-83.5 -189z " />
<glyph unicode="&#x474;" horiz-adv-x="1570" d="M14 1419h283q104 -317 199.5 -587.5t203.5 -524.5l308 840q20 55 44.5 107.5t62.5 94.5t94.5 66.5t140.5 24.5q145 0 260 -99l-107 -178q-55 49 -123 49q-49 0 -78.5 -30.5t-58.5 -98.5l-422 -1083h-248q-70 152 -137 307.5t-135 327.5t-138.5 364.5t-148.5 419.5z" />
<glyph unicode="&#x475;" horiz-adv-x="1185" d="M27 1071h264q23 -90 52.5 -193.5t63 -208t69.5 -201.5t67 -173l184 557q18 57 42 102t57.5 76t78.5 46.5t111 15.5q90 0 188 -35l-47 -187q-23 8 -47.5 14.5t-50.5 6.5q-47 0 -72.5 -25.5t-48.5 -79.5l-293 -786h-213q-49 106 -103.5 229t-107.5 259.5t-102 283 t-92 299.5z" />
<glyph unicode="&#x48a;" horiz-adv-x="1568" d="M170 0v1419h256v-942q70 111 159 239t184 255t189.5 244.5t176.5 203.5h211v-1200h206q2 -76 -15 -156.5t-51 -159.5t-83 -154t-111 -136l-172 108q47 55 91 127t69 152h-188v1016q-86 -102 -181.5 -230.5t-187.5 -264.5t-178 -270t-156 -251h-219zM440 1821l178 47 q31 -145 152 -146q123 0 154 144l176 -47q-6 -63 -35 -113.5t-73 -84.5t-101.5 -52.5t-120.5 -18.5t-120.5 18.5t-101.5 53.5t-73 85t-35 114z" />
<glyph unicode="&#x48b;" horiz-adv-x="1271" d="M135 0v1071h244q0 -119 -1 -226.5t-1 -195.5t-1 -153.5t-1 -100.5q57 88 118.5 181.5t124 182.5t124 169t118.5 143h213v-868h182q2 -78 -15 -155t-49 -147.5t-76 -132t-95 -108.5l-160 100q37 41 78 104.5t61 135.5h-172q0 117 1 231.5t2 213t2.5 171t1.5 107.5 q-61 -80 -127 -176t-130.5 -192.5t-122 -188.5t-100.5 -166h-219zM274 1501l179 47q35 -145 153 -145q121 0 154 143l176 -47q-8 -63 -36 -113.5t-72 -84t-101.5 -52t-120.5 -18.5q-66 0 -122 18.5t-101 53t-73.5 85t-35.5 113.5z" />
<glyph unicode="&#x48c;" horiz-adv-x="1308" d="M33 1085v189h164v145h252v-145h251v-189h-251v-184q35 2 67.5 2h67.5q319 0 487 -109.5t168 -349.5q0 -229 -168 -343.5t-477 -114.5q-86 0 -192.5 9t-204.5 32v1058h-164zM449 213q18 -2 48 -3t42 -1h50t62 2q63 2 121.5 14.5t104 39t71 69.5t25.5 108q0 74 -29 121 t-81 75t-124.5 38t-163.5 10h-62.5t-63.5 -2v-471z" />
<glyph unicode="&#x48d;" horiz-adv-x="1097" d="M23 825v162h139v131h246v-131h303v-162h-303v-166q33 8 89 13.5t115 5.5q86 0 166 -18.5t140.5 -59.5t97.5 -106.5t37 -159.5q0 -96 -34 -164t-94.5 -111t-145.5 -62.5t-187 -19.5q-117 0 -221.5 12.5t-208.5 37.5v798h-139zM408 182q25 -4 77 -7t97 -3q104 0 163.5 38 t59.5 126q0 45 -19.5 75.5t-52.5 49t-76 27t-88 8.5q-43 0 -87 -3.5t-74 -9.5v-301z" />
<glyph unicode="&#x48e;" horiz-adv-x="1275" d="M170 0v1399q90 20 199.5 27.5t201.5 7.5q309 0 474 -113t165 -352q0 -154 -63.5 -251t-183.5 -151l120 -207l-172 -96l-145 248q-96 -12 -209 -12h-129v-500h-258zM428 721h125h45.5t44.5 2l-90 158l170 98l119 -205q98 57 98 197q0 70 -26.5 117t-73.5 73.5t-111.5 37.5 t-138.5 11q-98 0 -162 -6v-483z" />
<glyph unicode="&#x48f;" horiz-adv-x="1220" d="M158 -379v1415q76 20 186.5 39t233.5 19q127 0 227 -39t171 -112t108.5 -176t37.5 -232q0 -154 -48 -274t-140 -191l117 -199l-160 -90l-121 211q-55 -14 -121 -15q-76 0 -139.5 18.5t-103.5 41.5v-416h-248zM406 252q33 -23 87 -42.5t115 -19.5h22.5t22.5 3l-112 196 l157 92l111 -194q31 45 45 106t14 137q0 166 -74.5 258.5t-240.5 92.5q-35 0 -73 -3.5t-74 -13.5v-612z" />
<glyph unicode="&#x490;" horiz-adv-x="1097" d="M170 0v1419h657v271h244v-492h-643v-1198h-258z" />
<glyph unicode="&#x491;" horiz-adv-x="905" d="M158 0v1071h506v260h215v-465h-473v-866h-248z" />
<glyph unicode="&#x492;" horiz-adv-x="1126" d="M33 625v190h166v604h901v-221h-643v-383h331v-190h-331v-625h-258v625h-166z" />
<glyph unicode="&#x493;" horiz-adv-x="919" d="M23 395v168h159v508h711v-205h-463v-303h285v-168h-285v-395h-248v395h-159z" />
<glyph unicode="&#x494;" horiz-adv-x="1316" d="M170 0v1419h899v-221h-641v-330q43 8 104.5 16.5t131.5 8.5q139 0 247.5 -43t182 -124t112.5 -197.5t39 -262.5q0 -139 -38 -257t-110.5 -204t-178 -135t-240.5 -49q-41 0 -69.5 1t-53.5 5l6 203q14 -2 35.5 -3t46.5 -1q82 0 147.5 30.5t109.5 88t67.5 139.5t23.5 182 q0 111 -27.5 188.5t-76.5 127t-119 72t-152 22.5q-53 0 -109 -8.5t-79 -12.5v-655h-258z" />
<glyph unicode="&#x495;" horiz-adv-x="1138" d="M158 0v1071h770v-205h-522v-233q33 6 88 14t108 8q227 0 348 -130t121 -392q0 -246 -123 -380t-338 -134q-55 0 -104 6l12 191q14 -2 33.5 -3t42.5 -1q242 0 242 319q0 184 -71 257t-208 73q-33 0 -79 -5t-72 -12v-444h-248z" />
<glyph unicode="&#x496;" horiz-adv-x="1974" d="M41 0q55 100 122.5 203.5t141.5 202t153 185.5t156 159q-147 160 -291.5 335t-267.5 334h310q109 -143 232.5 -296.5t248.5 -305.5v602h252v-602q125 154 253 309.5t228 292.5h307q-131 -168 -272 -338t-283 -329q117 -109 226.5 -242t205.5 -279h205v-600h-248v369h-106 q-119 193 -247 357.5t-269 301.5v-659h-252v659q-145 -145 -270 -305.5t-246 -353.5h-289z" />
<glyph unicode="&#x497;" horiz-adv-x="1665" d="M20 0q94 158 215 304.5t244 270.5q-117 125 -227.5 255.5t-194.5 240.5h285q63 -86 148 -190.5t210 -255.5v446h240v-446q129 150 213 256t147 190h281q-78 -111 -187.5 -240t-230.5 -253q90 -92 171 -184.5t153 -190.5h172v-500h-221v297h-92q-41 61 -89.5 129 t-100.5 134.5t-107.5 128t-108.5 114.5v-506h-240v506q-53 -55 -108 -118.5t-107.5 -130.5t-100.5 -132.5t-87 -124.5h-277z" />
<glyph unicode="&#x498;" horiz-adv-x="1208" d="M53 78l76 207q27 -12 65.5 -27.5t88 -30t106.5 -24.5t117 -10q160 0 247 48t87 167q0 70 -30 114.5t-82 69t-124 34t-153 9.5h-160v213h162q59 0 118.5 9t106.5 32.5t75.5 63.5t28.5 102q0 80 -66.5 127t-183.5 47q-113 0 -199.5 -25.5t-146.5 -60.5l-84 207 q66 41 179.5 70.5t253.5 29.5q111 0 205 -23.5t161.5 -72.5t106.5 -123t39 -172q0 -90 -51.5 -171t-155.5 -126q55 -20 104 -51t86 -76t58.5 -103.5t21.5 -132.5q0 -199 -121 -299t-334 -123q-8 -16 -14 -30.5t-10 -26.5q66 -31 91.5 -69.5t25.5 -96.5q0 -72 -61.5 -123 t-184.5 -51q-98 0 -174 27l28 147q20 -6 53 -14t68 -8t54.5 12t19.5 37q0 33 -28.5 48t-57.5 26l-21 6q8 23 20.5 51.5t24.5 56.5q-70 2 -135 13.5t-121.5 27t-102.5 33.5t-77 35z" />
<glyph unicode="&#x499;" horiz-adv-x="1024" d="M84 39l43 201q39 -16 125 -38t203 -22q225 0 225 131q0 47 -20.5 76t-51 44t-69.5 20.5t-76 5.5h-205v184h203q76 0 130 27.5t54 97.5q0 57 -52 91t-147 34q-41 0 -84 -5t-82.5 -13.5t-72.5 -17.5t-51 -17l-45 200q27 10 65.5 20.5t83.5 18.5t95.5 13.5t101.5 5.5 q88 0 168 -16.5t139 -53.5t95 -94.5t36 -136.5q0 -86 -47 -145.5t-109 -88.5q92 -35 141.5 -102.5t49.5 -171.5q0 -72 -25.5 -125t-72 -90t-110 -59.5t-138.5 -30.5l-27 -62q66 -31 91.5 -69.5t25.5 -96.5q0 -72 -61.5 -123t-184.5 -51q-98 0 -174 27l29 147q20 -6 53 -14 t67 -8q35 0 54.5 12t19.5 37q0 33 -28.5 48t-57.5 26l-20 6q8 23 20 54.5t27 59.5q-104 4 -192.5 22.5t-141.5 41.5z" />
<glyph unicode="&#x49a;" horiz-adv-x="1404" d="M170 0v1419h258v-585q68 68 141.5 144.5t146 155t138.5 152.5t119 133h309q-68 -78 -143.5 -161.5t-155.5 -168.5t-161 -169t-158 -160q129 -98 262 -239.5t250 -301.5h223v-598h-248v379h-133q-53 82 -123 172t-146.5 174t-158.5 160t-162 131v-637h-258z" />
<glyph unicode="&#x49b;" horiz-adv-x="1161" d="M158 0v1071h248v-430q47 47 102 105.5t109.5 118t103.5 113.5t82 93h291q-45 -53 -103.5 -116.5t-121 -130t-123 -129t-109.5 -111.5q84 -72 178 -173.5t176 -207.5h164v-500h-221v297h-92q-39 61 -91.5 129t-110.5 132.5t-118.5 121.5t-115.5 98v-481h-248z" />
<glyph unicode="&#x49c;" horiz-adv-x="1533" d="M170 0v1419h258v-588h115v310h174v-295q123 145 237.5 291.5t210.5 281.5h305q-125 -172 -263 -338t-283 -321q166 -147 310 -343t259 -417h-301q-45 80 -102.5 169t-121 174t-128 161t-123.5 131v-299h-174v305h-115v-641h-258z" />
<glyph unicode="&#x49d;" horiz-adv-x="1331" d="M156 0v1071h247v-434h103v242h149v-228q100 121 181.5 223.5t150.5 196.5h285q-43 -55 -97.5 -119.5t-111.5 -129t-114.5 -126t-106.5 -112.5q61 -59 127.5 -131t128 -149t116 -154.5t95.5 -149.5h-281q-37 55 -81 120.5t-93 130t-100.5 125t-98.5 105.5v-233h-149v237 h-103v-485h-247z" />
<glyph unicode="&#x49e;" horiz-adv-x="1359" d="M33 1130v175h164v159h258v-159h188v-175h-188v-313q70 68 149.5 146.5t158.5 159.5t148.5 158t122.5 138h309q-143 -172 -309 -346t-344 -334q86 -66 177 -149.5t178.5 -179t166 -200t142.5 -210.5h-305q-53 82 -122 168t-148 168t-161.5 153.5t-162.5 126.5v-616h-258 v1130h-164z" />
<glyph unicode="&#x49f;" horiz-adv-x="1181" d="M23 887v139h147v117h248v-117h155v-139h-155v-279q55 53 115.5 114.5t119 123t111.5 120t92 105.5h293q-55 -63 -116.5 -131t-126 -133.5t-127 -128t-120.5 -115.5q63 -53 135 -120.5t139.5 -143.5t126 -152.5t99.5 -146.5h-287q-41 61 -94 125.5t-113.5 126t-123 117 t-123.5 100.5v-469h-248v887h-147z" />
<glyph unicode="&#x4a0;" horiz-adv-x="1550" d="M27 1198v221h618v-585q68 68 141.5 144.5t146.5 155t138.5 152.5t118.5 133h309q-68 -78 -143.5 -161.5t-155.5 -168.5t-161 -169t-158 -160q86 -66 175 -153t175 -186t165 -207t144 -214h-305q-53 82 -123 172t-146.5 174t-158.5 160t-162 131v-637h-258v1198h-360z" />
<glyph unicode="&#x4a1;" horiz-adv-x="1282" d="M27 879v192h512v-430q47 47 102 105.5t109.5 118t103.5 113.5t82 93h291q-45 -53 -103.5 -116.5t-121 -130t-123 -129t-109.5 -111.5q63 -53 133 -124t135.5 -150t124 -159.5t97.5 -150.5h-287q-39 61 -91.5 129t-109.5 132.5t-117.5 121.5t-115.5 98v-481h-248v879h-264 z" />
<glyph unicode="&#x4a2;" horiz-adv-x="1562" d="M170 0v1419h258v-567h616v567h259v-1200h225v-598h-248v379h-236v629h-616v-629h-258z" />
<glyph unicode="&#x4a3;" horiz-adv-x="1259" d="M158 0v1071h248v-418h403v418h248v-868h166v-500h-219v297h-195v449h-403v-449h-248z" />
<glyph unicode="&#x4a4;" horiz-adv-x="1691" d="M170 0v1419h258v-567h616v567h621v-221h-362v-1198h-259v629h-616v-629h-258z" />
<glyph unicode="&#x4a5;" horiz-adv-x="1343" d="M158 0v1071h248v-418h403v418h508v-192h-260v-879h-248v449h-403v-449h-248z" />
<glyph unicode="&#x4a6;" horiz-adv-x="2156" d="M170 0v1419h1102v-551q43 8 104.5 16.5t130.5 8.5q139 0 248 -43t182.5 -124t112.5 -197.5t39 -262.5q0 -139 -38 -257t-110.5 -204t-178 -135t-240.5 -49q-41 0 -70 1t-53 5l6 203q14 -2 35.5 -3t46.5 -1q82 0 147.5 30.5t109.5 88t67.5 139.5t23.5 182 q0 111 -27.5 188.5t-77 127t-119 72t-151.5 22.5q-53 0 -109.5 -8.5t-78.5 -12.5v-655h-258v1198h-586v-1198h-258z" />
<glyph unicode="&#x4a7;" horiz-adv-x="1767" d="M158 0v1071h891v-438q33 6 87 14t107 8q227 0 348 -130t121 -392q0 -246 -123 -380t-338 -134q-55 0 -104 6l12 191q14 -2 33.5 -3t42.5 -1q242 0 242 319q0 184 -71 257t-208 73q-33 0 -78 -5t-71 -12v-444h-248v864h-395v-864h-248z" />
<glyph unicode="&#x4a8;" horiz-adv-x="1636" d="M113 711q0 158 49 294t143 235t232.5 155.5t318.5 56.5q86 0 173 -17.5t147 -43.5l-64 -209q-47 23 -113.5 36t-130.5 13q-246 0 -366.5 -143.5t-120.5 -395.5q0 -188 70.5 -312t232.5 -165q-35 129 -35 285q0 119 26.5 219t84 174t143.5 115t207 41q111 0 190.5 -38 t131 -104.5t76 -154.5t24.5 -189q0 -94 -31 -184t-90 -165t-149.5 -131t-208.5 -83q37 -45 88 -75.5t109.5 -50t117.5 -30t111 -14.5l-33 -209q-217 16 -394.5 104.5t-271.5 254.5q-166 8 -290.5 66t-208.5 154.5t-126 226.5t-42 284zM905 477q0 -86 9.5 -153.5t25.5 -124.5 q174 20 257 120.5t83 241.5q0 117 -41 189.5t-133 72.5q-90 0 -145.5 -77.5t-55.5 -268.5z" />
<glyph unicode="&#x4a9;" horiz-adv-x="1277" d="M98 541q0 119 38 221t106.5 177t167 117t221.5 42q72 0 131 -12.5t100 -28.5l-47 -187q-29 10 -72 20.5t-94 10.5q-160 0 -243.5 -100.5t-83.5 -261.5q0 -145 54 -237.5t165 -127.5q-23 86 -23 184q0 197 85 308.5t265 111.5q166 0 246 -97t80 -253q0 -72 -21.5 -139.5 t-64.5 -123.5t-108.5 -100.5t-153.5 -66.5q27 -29 64.5 -48.5t79.5 -33.5t87 -21.5t86 -11.5l-30 -184q-375 18 -529 281q-238 16 -372 158.5t-134 402.5zM727 348q0 -57 6 -103t17 -85q113 16 174 86.5t61 187.5q0 66 -26.5 114t-92.5 48q-68 0 -103.5 -54.5t-35.5 -193.5z " />
<glyph unicode="&#x4aa;" horiz-adv-x="1306" d="M117 711q0 178 54 315t148.5 232.5t221.5 144.5t272 49q88 0 159.5 -13.5t125 -29.5t88.5 -34.5t49 -26.5l-76 -211q-49 31 -140 58.5t-198 27.5q-92 0 -172 -32t-138 -95.5t-91 -159.5t-33 -223q0 -113 25.5 -207t79 -163t135.5 -106.5t196 -37.5q137 0 223.5 27.5 t133.5 52.5l69 -211q-45 -29 -151.5 -61t-253.5 -38q-8 -14 -13.5 -26.5t-9.5 -22.5q66 -31 91.5 -69.5t25.5 -96.5q0 -72 -61.5 -123t-184.5 -51q-98 0 -174 27l29 147q20 -6 53 -14t68 -8t54 12t19 37q0 33 -28.5 48t-57.5 26l-20 6q8 25 21.5 56.5t27.5 59.5 q-268 33 -417.5 221.5t-149.5 512.5z" />
<glyph unicode="&#x4ab;" horiz-adv-x="966" d="M98 535q0 119 37 222t105.5 179t167 119t221.5 43q152 0 286 -56l-53 -202q-43 18 -97 30.5t-116 12.5q-145 0 -221 -91.5t-76 -256.5q0 -160 72 -253.5t242 -93.5q63 0 124.5 12.5t106.5 30.5l35 -204q-37 -18 -108.5 -32.5t-149.5 -19.5q-8 -16 -14.5 -30.5 t-10.5 -24.5q66 -31 91.5 -69.5t25.5 -96.5q0 -72 -61.5 -123t-184.5 -51q-98 0 -174 27l29 147q20 -6 53 -14t68 -8t54 12t19 37q0 33 -28.5 48t-57.5 26l-20 6q8 27 22.5 60.5t28.5 62.5q-106 18 -184 65t-129 120t-77 165t-26 201z" />
<glyph unicode="&#x4ac;" horiz-adv-x="1185" d="M27 1196v223h1132v-223h-436v-977h217v-598h-248v379h-229v1196h-436z" />
<glyph unicode="&#x4ad;" horiz-adv-x="991" d="M27 864v207h938v-207h-347v-661h173v-500h-222v297h-198v864h-344z" />
<glyph unicode="&#x4ae;" horiz-adv-x="1280" d="M6 1419h303q72 -160 158 -317t180 -311q92 154 180 311.5t160 316.5h287q-115 -217 -239 -431t-265 -431v-557h-258v553q-141 219 -266 434t-240 432z" />
<glyph unicode="&#x4af;" horiz-adv-x="1079" d="M27 1071h264q23 -96 52.5 -200.5t63 -208t69.5 -199.5t67 -174q31 78 65.5 174t68.5 199.5t63.5 208t52.5 200.5h260q-82 -293 -183.5 -549t-205.5 -473v-428h-248v434q-102 217 -206 470t-183 546z" />
<glyph unicode="&#x4b0;" horiz-adv-x="1280" d="M6 1419h303q72 -160 158 -317t180 -311q92 154 180 311.5t160 316.5h287q-111 -211 -231.5 -416.5t-254.5 -416.5h263v-189h-281v-397h-258v397h-279v189h259q-135 211 -255 416.5t-231 416.5z" />
<glyph unicode="&#x4b1;" horiz-adv-x="1079" d="M27 1071h264q23 -96 52.5 -200.5t63 -208t69.5 -199.5t67 -174q31 78 65.5 174t68.5 199.5t63.5 208t52.5 200.5h260q-72 -256 -158 -482.5t-178 -424.5h205v-164h-258v-379h-248v379h-262v164h211q-92 199 -180.5 425t-157.5 482z" />
<glyph unicode="&#x4b2;" horiz-adv-x="1388" d="M41 0q92 174 213 357.5t262 383.5l-455 678h308l313 -485l309 485h295l-448 -676q207 -282 350 -524h194v-598h-247v379h-123q-59 121 -149.5 266.5t-188.5 280.5q-41 -53 -89 -127t-96.5 -150.5t-89.5 -148.5t-65 -121h-293z" />
<glyph unicode="&#x4b3;" horiz-adv-x="1118" d="M27 0q31 61 73.5 131t92 142.5t101.5 145.5t103 138l-354 514h272l228 -350l227 350h260l-352 -506q70 -92 135.5 -182t124.5 -180h174v-500h-221v297h-103q-18 39 -47.5 89t-63.5 104.5t-71 107.5t-71 100q-72 -92 -140.5 -203.5t-113.5 -197.5h-254z" />
<glyph unicode="&#x4b4;" horiz-adv-x="1792" d="M27 1196v223h1026v-223h-383v-977h616v1200h258v-1200h213v-598h-248v379h-1097v1196h-385z" />
<glyph unicode="&#x4b5;" horiz-adv-x="1374" d="M27 864v207h741v-207h-244v-661h404v868h248v-868h161v-506h-219v303h-842v864h-249z" />
<glyph unicode="&#x4b6;" horiz-adv-x="1394" d="M113 997v422h258v-413q0 -170 73.5 -239t235.5 -69q66 0 132.5 8.5t113.5 16.5v696h258v-1200h176v-598h-248v379h-186v502q-53 -10 -127 -17.5t-150 -7.5q-143 0 -244.5 30t-166 93.5t-95 161.5t-30.5 235z" />
<glyph unicode="&#x4b7;" horiz-adv-x="1175" d="M88 737v334h248v-332q0 -98 56.5 -138t154.5 -40q47 0 93 5t81 14v491h248v-868h170v-500h-221v297h-197v383q-37 -6 -96.5 -15.5t-106.5 -9.5q-96 0 -175 18.5t-136 62.5t-88 117t-31 181z" />
<glyph unicode="&#x4b8;" horiz-adv-x="1351" d="M113 997v422h258v-422q0 -127 42 -198.5t156 -91.5v241h176v-248q55 4 101.5 10.5t75.5 12.5v696h260v-1419h-260v500q-29 -6 -75 -11.5t-102 -9.5v-250h-176v250q-139 8 -228 49t-140 107.5t-69.5 159t-18.5 202.5z" />
<glyph unicode="&#x4b9;" horiz-adv-x="1148" d="M74 737v334h248v-332q0 -84 35.5 -126t111.5 -52v184h149v-186q78 6 125 19v493h248v-1071h-248v383q-23 -4 -54.5 -10t-70.5 -11v-182h-149v178q-92 4 -166 26t-124 66t-77.5 114.5t-27.5 172.5z" />
<glyph unicode="&#x4ba;" horiz-adv-x="1361" d="M170 0v1419h258v-491q49 8 117.5 15t150.5 7q168 0 275.5 -36.5t169 -105.5t85 -166t23.5 -216v-426h-258v426q0 76 -14 133t-51 95t-98.5 56.5t-155.5 18.5q-66 0 -134.5 -7t-109.5 -17v-705h-258z" />
<glyph unicode="&#x4bb;" horiz-adv-x="1191" d="M158 0v1548l248 41v-530q41 14 95 24.5t107 10.5q129 0 214 -36t136.5 -100.5t73 -154.5t21.5 -201v-602h-248v563q0 86 -11.5 146.5t-37 98.5t-68.5 55.5t-106 17.5q-49 0 -100.5 -10.5t-75.5 -18.5v-852h-248z" />
<glyph unicode="&#x4bc;" horiz-adv-x="1753" d="M25 979q0 33 6 69.5t12 59.5l201 -25q-4 -23 -6 -42t-2 -33q0 -59 36.5 -95t135.5 -51q18 147 74.5 257t140.5 183.5t192.5 110.5t233.5 37q135 0 245.5 -45t188.5 -134t120 -222.5t42 -309.5q0 -35 -3.5 -65.5t-5.5 -36.5h-968q20 -231 129.5 -336.5t335.5 -105.5 q63 0 117.5 9t100.5 23.5t80.5 28.5t57.5 27l65 -207q-18 -12 -59 -30.5t-99.5 -36t-130 -29t-153.5 -11.5q-178 0 -309 51.5t-219 141.5t-133 215t-54 272q-84 8 -152.5 29.5t-117.5 59.5t-75.5 96.5t-26.5 144.5zM676 848h700q-6 174 -91 278.5t-241 104.5 q-92 0 -157.5 -33t-110.5 -86t-68.5 -121.5t-31.5 -142.5z" />
<glyph unicode="&#x4bd;" horiz-adv-x="1404" d="M18 803q0 33 5.5 62.5t9.5 47.5l190 -24q-4 -20 -5 -43t-1 -37q0 -59 28.5 -95t98.5 -52q18 109 66.5 190.5t114 135.5t144.5 82t162 28q221 0 345 -137.5t124 -409.5q0 -20 -1 -46t-3 -46h-706q10 -129 91 -200t234 -71q90 0 165 16.5t118 35.5l33 -203 q-20 -10 -56 -21.5t-82 -20.5t-99.5 -15.5t-108.5 -6.5q-135 0 -234.5 38t-167 104.5t-104.5 159t-43 202.5q-156 20 -237 93t-81 233zM592 641h461q0 51 -14.5 97t-42 80t-67.5 53.5t-95 19.5q-57 0 -100.5 -21.5t-73 -56.5t-46 -80t-22.5 -92z" />
<glyph unicode="&#x4be;" horiz-adv-x="1755" d="M27 979q0 33 6 69.5t12 59.5l201 -25q-4 -23 -6 -42t-2 -33q0 -59 36.5 -95t135.5 -51q18 147 74.5 257t140.5 183.5t192.5 110.5t233.5 37q135 0 245.5 -45t188.5 -134t120 -222.5t42 -309.5q0 -35 -3.5 -65.5t-5.5 -36.5h-968q20 -231 129.5 -336.5t335.5 -105.5 q63 0 117.5 9t100.5 23.5t80.5 28.5t57.5 27l65 -207q-18 -12 -54 -28.5t-87 -33t-115.5 -29t-136.5 -14.5v-350h-248v367q-127 27 -221 86t-157.5 145t-97 195.5t-40.5 234.5q-84 8 -152.5 29.5t-117.5 59.5t-75.5 96.5t-26.5 144.5zM678 848h700q-6 174 -91 278.5 t-240 104.5q-92 0 -158 -33t-111 -86t-68.5 -121.5t-31.5 -142.5z" />
<glyph unicode="&#x4bf;" horiz-adv-x="1404" d="M18 803q0 33 5.5 62.5t9.5 47.5l190 -24q-4 -20 -5 -43t-1 -37q0 -59 28.5 -95t98.5 -52q18 109 66.5 190.5t114 135.5t144.5 82t162 28q221 0 345 -137.5t124 -409.5q0 -20 -1 -46t-3 -46h-706q10 -129 91 -200t234 -71q90 0 165 16.5t118 35.5l33 -203 q-35 -18 -109.5 -35.5t-165.5 -24.5v-280h-221v291q-96 18 -168.5 62t-122 107.5t-76 144.5t-32.5 175q-156 20 -237 93t-81 233zM592 641h461q0 51 -14.5 97t-42 80t-67.5 53.5t-95 19.5q-57 0 -100.5 -21.5t-73 -56.5t-46 -80t-22.5 -92z" />
<glyph unicode="&#x4c0;" horiz-adv-x="598" d="M170 0v1419h258v-1419h-258z" />
<glyph unicode="&#x4c1;" horiz-adv-x="1943" d="M41 0q55 100 122.5 203.5t141.5 202t153 185.5t156 159q-147 160 -291.5 335t-267.5 334h310q109 -143 232.5 -296.5t248.5 -305.5v602h252v-602q125 154 253 309.5t228 292.5h307q-131 -168 -272 -338t-283 -329q166 -152 313.5 -349.5t260.5 -402.5h-291 q-119 193 -247 357.5t-269 301.5v-659h-252v659q-145 -145 -270 -305.5t-246 -353.5h-289zM639 1816l178 47q35 -145 154 -145q121 0 153 143l176 -47q-8 -63 -35.5 -113.5t-71.5 -84t-101.5 -52t-120.5 -18.5q-66 0 -122.5 18.5t-101.5 53t-73.5 85t-34.5 113.5z" />
<glyph unicode="&#x4c2;" horiz-adv-x="1640" d="M20 0q94 158 215 304.5t244 270.5q-117 125 -227.5 255.5t-194.5 240.5h285q63 -86 148 -190.5t210 -255.5v446h240v-446q129 150 213 256t147 190h281q-78 -111 -187.5 -240t-230.5 -253q135 -135 249 -276.5t210 -301.5h-276q-41 61 -89.5 129t-100.5 134.5t-107.5 128 t-108.5 114.5v-506h-240v506q-53 -55 -108 -118.5t-107.5 -130.5t-100.5 -132.5t-87 -124.5h-277zM488 1501l178 47q35 -145 154 -145q121 0 153 143l176 -47q-8 -63 -35.5 -113.5t-71.5 -84t-101.5 -52t-120.5 -18.5q-66 0 -122.5 18.5t-101.5 53t-73.5 85t-34.5 113.5z " />
<glyph unicode="&#x4c3;" horiz-adv-x="1351" d="M170 0v1419h258v-645q76 82 152.5 172t147.5 175t131.5 162t105.5 136h305q-55 -68 -124 -146.5t-141.5 -160.5t-145.5 -160t-136 -145q113 -14 211 -55t170 -113t114 -175.5t42 -242.5q0 -125 -36 -234.5t-105.5 -190.5t-174.5 -128t-242 -47q-41 0 -69.5 1t-52.5 5 l6 203q14 -2 30.5 -3t51.5 -1q80 0 142 28.5t106.5 81t67 125t22.5 158.5q0 125 -42 202t-109 120t-148.5 57t-159.5 14q-29 0 -59.5 -1t-59.5 -3v-608h-258z" />
<glyph unicode="&#x4c4;" horiz-adv-x="1144" d="M158 0v1071h248v-448q43 43 98 104t111.5 126t107.5 123t84 95h276q-37 -43 -89 -100.5t-108.5 -118.5t-111.5 -119.5t-100 -105.5q186 -23 295.5 -149t109.5 -359t-124 -366.5t-339 -133.5q-27 0 -54 1t-50 5l12 191q16 -2 36 -3t40 -1q121 0 183.5 78.5t62.5 226.5 q0 180 -88 259t-242 79q-25 0 -59.5 -2t-50.5 -7v-446h-248z" />
<glyph unicode="&#x4c5;" horiz-adv-x="1572" d="M20 201q74 8 129.5 28.5t96.5 54t71.5 84t53.5 117.5q55 160 73.5 399.5t18.5 534.5h887v-1200h206q2 -76 -15 -156.5t-51 -159.5t-83 -154t-111 -136l-172 108q47 55 91.5 127t68.5 152h-194v1198h-379q-6 -139 -14.5 -283.5t-30 -278.5t-62.5 -253t-112.5 -208 t-179 -142t-263.5 -58z" />
<glyph unicode="&#x4c6;" horiz-adv-x="1290" d="M20 186q104 20 162 66.5t88 118.5q25 53 38.5 120.5t20.5 142.5t9 152.5t2 151.5v133h758v-868h190q0 -78 -17.5 -157t-49 -149.5t-75.5 -132t-93 -104.5l-160 100q37 41 78 104.5t61 135.5h-182v866h-272q-2 -90 -6.5 -187t-19.5 -191.5t-48 -180.5t-91.5 -154.5 t-145.5 -114.5t-212 -58z" />
<glyph unicode="&#x4c7;" horiz-adv-x="1472" d="M170 0v1419h258v-567h616v567h259v-1403q0 -100 -17.5 -174.5t-59.5 -125t-109.5 -75t-166.5 -24.5q-29 0 -72.5 5t-78.5 16l28 198q23 -4 46.5 -8t52.5 -4q70 0 94 46t24 134v625h-616v-629h-258z" />
<glyph unicode="&#x4c8;" horiz-adv-x="1214" d="M158 0v1071h248v-418h403v418h248v-1059q0 -199 -80 -296t-266 -97q-29 0 -74 5t-80 16l29 198q23 -4 47 -8t53 -4q68 0 95.5 44t27.5 130v449h-403v-449h-248z" />
<glyph unicode="&#x4c9;" horiz-adv-x="1527" d="M170 0v1419h258v-567h616v567h259v-1200h208q2 -76 -15 -156.5t-51 -159.5t-83 -154t-111 -136l-172 108q47 55 91 127t69 152h-195v629h-616v-629h-258z" />
<glyph unicode="&#x4ca;" horiz-adv-x="1232" d="M158 0v1071h248v-418h403v418h248v-868h176q2 -78 -15.5 -155t-49 -147.5t-75.5 -132t-96 -108.5l-159 100q37 41 77.5 104.5t61.5 135.5h-168v449h-403v-449h-248z" />
<glyph unicode="&#x4cb;" horiz-adv-x="1368" d="M127 997v422h258v-413q0 -170 73.5 -239t237.5 -69q63 0 130 8.5t114 16.5v696h258v-1419h-223v-379h-248v567h213v314q-53 -10 -126 -17.5t-150 -7.5q-143 0 -245 30t-166.5 93.5t-95 161.5t-30.5 235z" />
<glyph unicode="&#x4cc;" horiz-adv-x="1126" d="M88 762v309h248v-307q0 -98 56.5 -138t154.5 -40q47 0 93 5t81 13v467h248v-1071h-199v-297h-221v496h172v209q-37 -8 -96.5 -16.5t-106.5 -8.5q-96 0 -175 18.5t-136 62.5t-88 116.5t-31 181.5z" />
<glyph unicode="&#x4cd;" horiz-adv-x="1886" d="M131 0q8 176 19.5 364.5t24.5 374t29.5 359.5t35.5 321h239q45 -78 100.5 -190.5t113 -236.5t113.5 -252t103 -236q47 109 102.5 236.5t113 251.5t112.5 236.5t100 190.5h234q31 -266 55.5 -578.5t40.5 -621.5h213q2 -76 -15.5 -156.5t-51 -159.5t-83 -154t-110.5 -136 l-172 108q47 55 91 127t69 152h-183q-8 248 -19 510t-34 508q-23 -47 -53.5 -112.5t-65 -142.5t-70.5 -159t-70 -158.5t-62.5 -143t-49.5 -114.5h-192q-20 47 -49 115t-62.5 144.5t-69.5 158.5t-71 158t-65.5 142.5t-53.5 111.5q-23 -246 -34 -508t-19 -510h-254z" />
<glyph unicode="&#x4ce;" horiz-adv-x="1579" d="M131 0q4 119 12.5 257t19.5 280.5t23.5 279.5t26.5 254h215q78 -125 158 -294t178 -384q102 219 186 396.5t150 281.5h217q12 -94 22.5 -200.5t19.5 -219t17 -227.5t15 -221h190q2 -78 -15.5 -155t-49 -147.5t-75.5 -132t-95 -108.5l-160 100q37 41 78 104.5t61 135.5 h-172q-4 168 -13.5 347t-21.5 355q-31 -61 -66.5 -137t-70.5 -153.5t-67.5 -150.5t-57.5 -128h-184q-25 55 -58.5 129t-68.5 152t-70.5 152.5t-66.5 135.5q-6 -86 -12.5 -179t-10.5 -185t-8 -178t-6 -160h-240z" />
<glyph unicode="&#x4cf;" horiz-adv-x="565" d="M160 0v1419h248v-1419h-248z" />
<glyph unicode="&#x4d0;" horiz-adv-x="1400" d="M10 0q80 227 151.5 419.5t140.5 364.5t136.5 328t139.5 307h243q72 -152 139.5 -307.5t136 -327.5t141.5 -364.5t153 -419.5h-279q-29 84 -59.5 166t-59.5 168h-598q-29 -86 -58.5 -169t-57.5 -165h-269zM365 1816l178 47q35 -145 154 -145q121 0 153 143l176 -47 q-8 -63 -35.5 -113.5t-71.5 -84t-101.5 -52t-120.5 -18.5q-66 0 -122.5 18.5t-101.5 53t-73.5 85t-34.5 113.5zM461 543h467q-66 182 -127.5 340t-106.5 262q-47 -109 -107.5 -264.5t-125.5 -337.5z" />
<glyph unicode="&#x4d1;" horiz-adv-x="1093" d="M82 324q0 92 36 155.5t97 103.5t142 57t169 17q41 0 86 -5t97 -17v41q0 43 -10.5 82t-36 68.5t-67.5 46t-106 16.5q-86 0 -157.5 -12.5t-116.5 -28.5l-31 201q47 16 137.5 32.5t192.5 16.5q123 0 207 -31t134 -86t71.5 -134t21.5 -173v-649q-57 -12 -173 -30t-261 -18 q-96 0 -176 18.5t-136.5 59.5t-88 106.5t-31.5 162.5zM227 1501l178 47q35 -145 154 -145q121 0 153 143l176 -47q-8 -63 -35.5 -113.5t-71.5 -84t-101.5 -52t-120.5 -18.5q-66 0 -122.5 18.5t-101.5 53t-73.5 85t-34.5 113.5zM330 330q0 -88 55.5 -122t149.5 -34 q115 0 174 12v275q-20 6 -59.5 12t-86.5 6q-41 0 -83 -6t-75.5 -22.5t-54 -46t-20.5 -74.5z" />
<glyph unicode="&#x4d2;" horiz-adv-x="1400" d="M10 0q80 227 151.5 419.5t140.5 364.5t136.5 328t139.5 307h243q72 -152 139.5 -307.5t136 -327.5t141.5 -364.5t153 -419.5h-279q-29 84 -59.5 166t-59.5 168h-598q-29 -86 -58.5 -169t-57.5 -165h-269zM342 1708q0 63 40.5 101.5t96.5 38.5q55 0 97 -38t42 -102 q0 -63 -42 -100t-97 -37t-96 37t-41 100zM461 543h467q-66 182 -127.5 340t-106.5 262q-47 -109 -107.5 -264.5t-125.5 -337.5zM763 1708q0 63 42 101.5t98 38.5q55 0 96 -38t41 -102q0 -63 -41 -100t-96 -37t-97.5 37t-42.5 100z" />
<glyph unicode="&#x4d3;" horiz-adv-x="1093" d="M82 324q0 92 36 155.5t97 103.5t142 57t169 17q41 0 86 -5t97 -17v41q0 43 -10.5 82t-36 68.5t-67.5 46t-106 16.5q-86 0 -157.5 -12.5t-116.5 -28.5l-31 201q47 16 137.5 32.5t192.5 16.5q123 0 207 -31t134 -86t71.5 -134t21.5 -173v-649q-57 -12 -173 -30t-261 -18 q-96 0 -176 18.5t-136.5 59.5t-88 106.5t-31.5 162.5zM195 1384q0 63 40.5 101.5t96.5 38.5q55 0 97 -38t42 -102q0 -63 -42 -100t-97 -37t-96 37t-41 100zM330 330q0 -88 55.5 -122t149.5 -34q115 0 174 12v275q-20 6 -59.5 12t-86.5 6q-41 0 -83 -6t-75.5 -22.5t-54 -46 t-20.5 -74.5zM616 1384q0 63 42 101.5t98 38.5q55 0 96 -38t41 -102q0 -63 -41 -100t-96 -37t-97.5 37t-42.5 100z" />
<glyph unicode="&#x4d4;" horiz-adv-x="1959" d="M6 0q242 444 455 791.5t411 627.5h969v-217h-610v-354h538v-211h-538v-420h659v-217h-911v350h-506q-47 -86 -96 -175t-90 -175h-281zM584 557h395v629q-43 -61 -92 -135t-100.5 -156t-102.5 -168t-100 -170z" />
<glyph unicode="&#x4d5;" horiz-adv-x="1779" d="M82 324q0 92 37 155.5t100.5 103.5t144 57t171.5 17q57 0 110 -8t76 -14v45q0 43 -11.5 82t-37 66.5t-69.5 44t-107 16.5q-86 0 -159 -12.5t-120 -28.5l-31 201q47 16 138.5 32.5t193.5 16.5q135 0 215 -41t129 -123q70 86 160 125t190 39q217 0 340 -137.5t123 -409.5 q0 -25 -2 -47.5t-2 -44.5h-706q10 -129 91 -200t232 -71q92 0 167 16.5t118 35.5l33 -203q-20 -10 -56.5 -21.5t-82.5 -20.5t-100 -15.5t-110 -6.5q-119 0 -206.5 29t-153.5 80q-80 -51 -175 -79t-204 -28q-98 0 -179 19.5t-138.5 61.5t-88 107.5t-30.5 160.5zM330 330 q0 -88 57.5 -122t159.5 -34q86 0 142 15.5t91 35.5q-29 66 -42 122t-17 116q-27 6 -67 11t-83 5t-86 -6t-77.5 -22.5t-56 -46t-21.5 -74.5zM967 641h460q0 51 -14 97t-42 80t-67.5 53.5t-95.5 19.5q-57 0 -100 -21.5t-72.5 -56.5t-46 -80t-22.5 -92z" />
<glyph unicode="&#x4d6;" horiz-adv-x="1200" d="M170 0v1419h911v-219h-653v-350h582v-215h-582v-416h702v-219h-960zM291 1816l178 47q35 -145 154 -145q121 0 153 143l176 -47q-8 -63 -35.5 -113.5t-71.5 -84t-101.5 -52t-120.5 -18.5q-66 0 -122.5 18.5t-101.5 53t-73.5 85t-34.5 113.5z" />
<glyph unicode="&#x4d7;" horiz-adv-x="1169" d="M98 530q0 141 42 248t112 177.5t160 106.5t184 36q221 0 345 -137.5t124 -409.5q0 -20 -1 -46t-3 -46h-707q10 -129 91 -200t235 -71q90 0 165 16.5t118 35.5l32 -203q-20 -10 -56 -21.5t-82 -20.5t-99 -15.5t-109 -6.5q-141 0 -245.5 42t-172 117t-100.5 176t-33 222z M266 1501l178 47q35 -145 154 -145q121 0 153 143l176 -47q-8 -63 -35.5 -113.5t-71.5 -84t-101.5 -52t-120.5 -18.5q-66 0 -122.5 18.5t-101.5 53t-73.5 85t-34.5 113.5zM356 641h461q0 51 -14.5 97t-42 80t-67.5 53.5t-95 19.5q-57 0 -100 -21.5t-73 -56.5t-46.5 -80 t-22.5 -92z" />
<glyph unicode="&#x4d8;" horiz-adv-x="1470" d="M109 680q0 20 3 53t7 51h968q-20 231 -130.5 337t-333.5 106q-63 0 -117.5 -10.5t-100 -23.5t-80 -28.5t-59.5 -25.5l-65 207q18 12 59 30.5t99.5 34.5t130 28.5t153.5 12.5q186 0 321.5 -56.5t222.5 -154.5t129 -233.5t42 -290.5q0 -188 -49 -327.5t-136.5 -234 t-207 -140.5t-258.5 -46q-137 0 -248 45t-188.5 134.5t-119.5 222.5t-42 309zM379 571q6 -174 91 -277.5t241 -103.5q92 0 157.5 33t110.5 86t68.5 122t31.5 140h-700z" />
<glyph unicode="&#x4d9;" horiz-adv-x="1169" d="M104 520q0 20 1 46t4 46h706q-10 129 -91 200t-235 71q-90 0 -164.5 -16.5t-117.5 -35.5l-33 203q20 10 56 21.5t82 20.5t99.5 15.5t108.5 6.5q141 0 245.5 -42t172.5 -117t100.5 -177t32.5 -221q0 -141 -42 -248t-111.5 -177.5t-159.5 -106.5t-185 -36 q-221 0 -345 137.5t-124 409.5zM352 430q0 -51 14.5 -97t42 -80t67.5 -53.5t95 -19.5q57 0 100.5 21.5t73 56.5t46 80t22.5 92h-461z" />
<glyph unicode="&#x4da;" horiz-adv-x="1470" d="M109 680q0 20 3 53t7 51h968q-20 231 -130.5 337t-333.5 106q-63 0 -117.5 -10.5t-100 -23.5t-80 -28.5t-59.5 -25.5l-65 207q18 12 59 30.5t99.5 34.5t130 28.5t153.5 12.5q186 0 321.5 -56.5t222.5 -154.5t129 -233.5t42 -290.5q0 -188 -49 -327.5t-136.5 -234 t-207 -140.5t-258.5 -46q-137 0 -248 45t-188.5 134.5t-119.5 222.5t-42 309zM357 1708q0 63 40.5 101.5t96.5 38.5q55 0 97 -38t42 -102q0 -63 -42 -100t-97 -37t-96 37t-41 100zM379 571q6 -174 91 -277.5t241 -103.5q92 0 157.5 33t110.5 86t68.5 122t31.5 140h-700z M778 1708q0 63 42 101.5t98 38.5q55 0 96 -38t41 -102q0 -63 -41 -100t-96 -37t-97.5 37t-42.5 100z" />
<glyph unicode="&#x4db;" horiz-adv-x="1169" d="M104 520q0 20 1 46t4 46h706q-10 129 -91 200t-235 71q-90 0 -164.5 -16.5t-117.5 -35.5l-33 203q20 10 56 21.5t82 20.5t99.5 15.5t108.5 6.5q141 0 245.5 -42t172.5 -117t100.5 -177t32.5 -221q0 -141 -42 -248t-111.5 -177.5t-159.5 -106.5t-185 -36 q-221 0 -345 137.5t-124 409.5zM228 1384q0 63 40.5 101.5t96.5 38.5q55 0 97 -38t42 -102q0 -63 -42 -100t-97 -37t-96 37t-41 100zM352 430q0 -51 14.5 -97t42 -80t67.5 -53.5t95 -19.5q57 0 100.5 21.5t73 56.5t46 80t22.5 92h-461zM649 1384q0 63 42 101.5t98 38.5 q55 0 96 -38t41 -102q0 -63 -41 -100t-96 -37t-97.5 37t-42.5 100z" />
<glyph unicode="&#x4dc;" horiz-adv-x="1943" d="M41 0q55 100 122.5 203.5t141.5 202t153 185.5t156 159q-147 160 -291.5 335t-267.5 334h310q109 -143 232.5 -296.5t248.5 -305.5v602h252v-602q125 154 253 309.5t228 292.5h307q-131 -168 -272 -338t-283 -329q166 -152 313.5 -349.5t260.5 -402.5h-291 q-119 193 -247 357.5t-269 301.5v-659h-252v659q-145 -145 -270 -305.5t-246 -353.5h-289zM623 1708q0 63 40.5 101.5t96.5 38.5q55 0 97 -38t42 -102q0 -63 -42 -100t-97 -37t-96 37t-41 100zM1044 1708q0 63 42 101.5t98 38.5q55 0 96 -38t41 -102q0 -63 -41 -100t-96 -37 t-97.5 37t-42.5 100z" />
<glyph unicode="&#x4dd;" horiz-adv-x="1640" d="M20 0q94 158 215 304.5t244 270.5q-117 125 -227.5 255.5t-194.5 240.5h285q63 -86 148 -190.5t210 -255.5v446h240v-446q129 150 213 256t147 190h281q-78 -111 -187.5 -240t-230.5 -253q135 -135 249 -276.5t210 -301.5h-276q-41 61 -89.5 129t-100.5 134.5t-107.5 128 t-108.5 114.5v-506h-240v506q-53 -55 -108 -118.5t-107.5 -130.5t-100.5 -132.5t-87 -124.5h-277zM472 1384q0 63 40.5 101.5t96.5 38.5q55 0 97 -38t42 -102q0 -63 -42 -100t-97 -37t-96 37t-41 100zM893 1384q0 63 42 101.5t98 38.5q55 0 96 -38t41 -102q0 -63 -41 -100 t-96 -37t-97.5 37t-42.5 100z" />
<glyph unicode="&#x4de;" horiz-adv-x="1208" d="M53 78l76 207q27 -12 65.5 -27.5t88 -30t106.5 -24.5t117 -10q160 0 247 48t87 167q0 70 -30 114.5t-82 69t-124 34t-153 9.5h-160v213h162q59 0 118.5 9t106.5 32.5t75.5 63.5t28.5 102q0 80 -66.5 127t-183.5 47q-113 0 -199.5 -25.5t-146.5 -60.5l-84 207 q66 41 179.5 70.5t253.5 29.5q111 0 205 -23.5t161.5 -72.5t106.5 -123t39 -172q0 -90 -51.5 -171t-155.5 -126q55 -20 104 -51t86 -76t58.5 -103.5t21.5 -132.5q0 -115 -41 -195.5t-116.5 -133t-185.5 -77t-245 -24.5q-76 0 -145.5 10.5t-131 27t-110.5 35.5t-82 36z M216 1720q0 63 40.5 101.5t96.5 38.5q55 0 97 -38t42 -102q0 -63 -42 -100t-97 -37t-96 37t-41 100zM637 1720q0 63 42 101.5t98 38.5q55 0 96 -38t41 -102q0 -63 -41 -100t-96 -37t-97.5 37t-42.5 100z" />
<glyph unicode="&#x4df;" horiz-adv-x="1024" d="M84 39l43 201q39 -16 125 -38t203 -22q225 0 225 131q0 47 -20.5 76t-51 44t-69.5 20.5t-76 5.5h-205v184h203q76 0 130 27.5t54 97.5q0 57 -52 91t-147 34q-41 0 -84 -5t-82.5 -13.5t-72.5 -17.5t-51 -17l-45 200q27 10 65.5 20.5t83.5 18.5t95.5 13.5t101.5 5.5 q88 0 168 -16.5t139 -53.5t95 -94.5t36 -136.5q0 -86 -47 -145.5t-109 -88.5q92 -35 141.5 -102.5t49.5 -171.5q0 -84 -36 -143.5t-98.5 -97.5t-146.5 -55.5t-182 -17.5q-119 0 -221.5 19.5t-161.5 46.5zM150 1384q0 63 40.5 101.5t96.5 38.5q55 0 97 -38t42 -102 q0 -63 -42 -100t-97 -37t-96 37t-41 100zM571 1384q0 63 42 101.5t98 38.5q55 0 96 -38t41 -102q0 -63 -41 -100t-96 -37t-97.5 37t-42.5 100z" />
<glyph unicode="&#x4e0;" horiz-adv-x="1198" d="M45 82l78 209q29 -14 68.5 -31.5t89 -33t105.5 -26t118 -10.5q156 0 241.5 51.5t85.5 170.5q0 70 -29.5 116.5t-81.5 74.5t-124 39t-156 11h-69v148q45 45 95 99t98 108.5t92 104.5t77 89h-618v217h952v-155q-29 -39 -75 -92.5t-99 -113t-110.5 -122t-108.5 -117.5 q201 -29 314.5 -128t113.5 -283q0 -115 -43 -198t-122 -136.5t-188.5 -79t-242.5 -25.5q-82 0 -154.5 12.5t-132 30t-103.5 37t-71 33.5z" />
<glyph unicode="&#x4e1;" horiz-adv-x="1013" d="M4 -307l53 205q57 -27 145.5 -44.5t176.5 -17.5q147 0 223 62.5t76 177.5q0 66 -27.5 110.5t-75 72.5t-112 39t-139.5 11h-72v152q39 45 83 98t87 107.5t83 105.5t68 92h-520v207h832v-160q-27 -41 -66 -92t-84 -108.5t-94 -118t-96 -115.5q80 -16 149.5 -47t121.5 -81 t83 -119.5t31 -161.5q0 -111 -38 -195t-107.5 -140.5t-170 -84t-223.5 -27.5q-57 0 -113.5 6t-106.5 15.5t-93 22.5t-74 28z" />
<glyph unicode="&#x4e2;" horiz-adv-x="1515" d="M170 0v1419h256v-942q70 111 159 239t184 255t189.5 244.5t176.5 203.5h211v-1419h-254v1016q-86 -102 -181.5 -230.5t-187.5 -264.5t-178 -270t-156 -251h-219zM467 1607v178h621v-178h-621z" />
<glyph unicode="&#x4e3;" horiz-adv-x="1253" d="M158 0v1071h243q0 -119 -1 -226.5t-1 -195.5t-1 -153.5t-1 -100.5q57 88 119 181.5t124 182.5t123.5 169t119.5 143h213v-1071h-246q0 117 1 231.5t2 213t2 171t1 107.5q-61 -80 -126.5 -176t-130 -192.5t-122 -188.5t-100.5 -166h-219zM317 1292v178h621v-178h-621z" />
<glyph unicode="&#x4e4;" horiz-adv-x="1515" d="M170 0v1419h256v-942q70 111 159 239t184 255t189.5 244.5t176.5 203.5h211v-1419h-254v1016q-86 -102 -181.5 -230.5t-187.5 -264.5t-178 -270t-156 -251h-219zM422 1708q0 63 40.5 101.5t96.5 38.5q55 0 97 -38t42 -102q0 -63 -42 -100t-97 -37t-96 37t-41 100z M843 1708q0 63 42 101.5t98 38.5q55 0 96 -38t41 -102q0 -63 -41 -100t-96 -37t-97.5 37t-42.5 100z" />
<glyph unicode="&#x4e5;" horiz-adv-x="1253" d="M158 0v1071h243q0 -119 -1 -226.5t-1 -195.5t-1 -153.5t-1 -100.5q57 88 119 181.5t124 182.5t123.5 169t119.5 143h213v-1071h-246q0 117 1 231.5t2 213t2 171t1 107.5q-61 -80 -126.5 -176t-130 -192.5t-122 -188.5t-100.5 -166h-219zM287 1384q0 63 40.5 101.5 t96.5 38.5q55 0 97 -38t42 -102q0 -63 -42 -100t-97 -37t-96 37t-41 100zM708 1384q0 63 42 101.5t98 38.5q55 0 96 -38t41 -102q0 -63 -41 -100t-96 -37t-97.5 37t-42.5 100z" />
<glyph unicode="&#x4e6;" horiz-adv-x="1601" d="M113 711q0 182 55 320t150.5 232.5t220.5 141.5t264 47t264 -47t218 -141.5t148.5 -232.5t55.5 -320t-54.5 -321.5t-147.5 -233t-218 -140.5t-266 -47t-267 47t-219.5 140.5t-148.5 232.5t-55 322zM381 711q0 -117 28.5 -212.5t83 -162t132 -103t176.5 -36.5 q96 0 174 36.5t132 103t83 162t29 212.5t-29 212t-83 161.5t-132 103.5t-174 37q-98 0 -176 -37t-132.5 -104.5t-83 -161.5t-28.5 -211zM445 1708q0 63 40.5 101.5t96.5 38.5q55 0 97 -38t42 -102q0 -63 -42 -100t-97 -37t-96 37t-41 100zM866 1708q0 63 42 101.5t98 38.5 q55 0 96 -38t41 -102q0 -63 -41 -100t-96 -37t-97.5 37t-42.5 100z" />
<glyph unicode="&#x4e7;" horiz-adv-x="1224" d="M98 537q0 127 38 230t106.5 177t163 114t206.5 40q113 0 208 -40t163 -114t105.5 -177t37.5 -230t-36.5 -231.5t-104 -178.5t-163 -115t-210.5 -41t-209 41t-161.5 115t-105.5 178.5t-38 231.5zM263 1384q0 63 40.5 101.5t96.5 38.5q55 0 97 -38t42 -102q0 -63 -42 -100 t-97 -37t-96 37t-41 100zM352 537q0 -162 68.5 -256.5t191.5 -94.5t191.5 94.5t68.5 256.5q0 160 -68.5 253t-191.5 93t-191.5 -93.5t-68.5 -252.5zM684 1384q0 63 42 101.5t98 38.5q55 0 96 -38t41 -102q0 -63 -41 -100t-96 -37t-97.5 37t-42.5 100z" />
<glyph unicode="&#x4e8;" horiz-adv-x="1601" d="M113 711q0 182 55 320t150.5 232.5t220.5 141.5t264 47t264 -47t218 -141.5t148.5 -232.5t55.5 -320t-54.5 -321.5t-147.5 -233t-218 -140.5t-266 -47t-267 47t-219.5 140.5t-148.5 232.5t-55 322zM385 621q23 -197 130.5 -310.5t285.5 -113.5q174 0 281.5 113.5 t129.5 310.5h-827zM387 809h825q-23 193 -130 304.5t-281 111.5t-282.5 -113t-131.5 -303z" />
<glyph unicode="&#x4e9;" horiz-adv-x="1224" d="M98 537q0 127 38 230t106.5 177t163 114t206.5 40q113 0 208 -40t163 -114t105.5 -177t37.5 -230t-36.5 -231.5t-104 -178.5t-163 -115t-210.5 -41t-209 41t-161.5 115t-105.5 178.5t-38 231.5zM356 463q16 -129 81.5 -203t174.5 -74t174.5 74t81.5 203h-512zM356 623 h510q-16 123 -83 191.5t-171 68.5t-170.5 -69t-85.5 -191z" />
<glyph unicode="&#x4ea;" horiz-adv-x="1601" d="M113 711q0 182 55 320t150.5 232.5t220.5 141.5t264 47t264 -47t218 -141.5t148.5 -232.5t55.5 -320t-54.5 -321.5t-147.5 -233t-218 -140.5t-266 -47t-267 47t-219.5 140.5t-148.5 232.5t-55 322zM385 621q23 -197 130.5 -310.5t285.5 -113.5q174 0 281.5 113.5 t129.5 310.5h-827zM387 809h825q-23 193 -130 304.5t-281 111.5t-282.5 -113t-131.5 -303zM445 1708q0 63 40.5 101.5t96.5 38.5q55 0 97 -38t42 -102q0 -63 -42 -100t-97 -37t-96 37t-41 100zM866 1708q0 63 42 101.5t98 38.5q55 0 96 -38t41 -102q0 -63 -41 -100t-96 -37 t-97.5 37t-42.5 100z" />
<glyph unicode="&#x4eb;" horiz-adv-x="1224" d="M98 537q0 127 38 230t106.5 177t163 114t206.5 40q113 0 208 -40t163 -114t105.5 -177t37.5 -230t-36.5 -231.5t-104 -178.5t-163 -115t-210.5 -41t-209 41t-161.5 115t-105.5 178.5t-38 231.5zM263 1384q0 63 40.5 101.5t96.5 38.5q55 0 97 -38t42 -102q0 -63 -42 -100 t-97 -37t-96 37t-41 100zM356 463q16 -129 81.5 -203t174.5 -74t174.5 74t81.5 203h-512zM356 623h510q-16 123 -83 191.5t-171 68.5t-170.5 -69t-85.5 -191zM684 1384q0 63 42 101.5t98 38.5q55 0 96 -38t41 -102q0 -63 -41 -100t-96 -37t-97.5 37t-42.5 100z" />
<glyph unicode="&#x4ec;" horiz-adv-x="1290" d="M45 68l70 211q49 -25 134 -52.5t222 -27.5q193 0 301.5 109.5t130.5 303.5h-610v219h604q-23 188 -128 292t-298 104q-129 0 -216 -29t-138 -55l-72 205q72 41 184.5 72.5t259.5 31.5q150 0 276 -47t218 -140.5t143.5 -232.5t51.5 -321q0 -186 -50.5 -325.5t-140.5 -232 t-218 -138.5t-282 -46q-143 0 -258.5 29t-183.5 70zM181 1708q0 63 40.5 101.5t96.5 38.5q55 0 97 -38t42 -102q0 -63 -42 -100t-97 -37t-96 37t-41 100zM602 1708q0 63 42 101.5t98 38.5q55 0 96 -38t41 -102q0 -63 -41 -100t-96 -37t-97.5 37t-42.5 100z" />
<glyph unicode="&#x4ed;" horiz-adv-x="1052" d="M63 37l43 201q47 -20 127 -36t158 -16q135 0 216 65.5t95 201.5h-421v186h419q-16 127 -93 188.5t-206 61.5q-80 0 -142 -13.5t-116 -31.5l-49 194q68 29 154 44.5t166 15.5q127 0 227 -41t170 -115t106.5 -176t36.5 -225q0 -129 -35.5 -233.5t-105.5 -178.5t-169 -114 t-226 -40q-111 0 -199 16.5t-156 45.5zM113 1384q0 63 40.5 101.5t96.5 38.5q55 0 97 -38t42 -102q0 -63 -42 -100t-97 -37t-96 37t-41 100zM534 1384q0 63 42 101.5t98 38.5q55 0 96 -38t41 -102q0 -63 -41 -100t-96 -37t-97.5 37t-42.5 100z" />
<glyph unicode="&#x4ee;" horiz-adv-x="1261" d="M43 1419h289q33 -84 75 -180t90 -198.5t101 -209t107 -213.5q74 182 141 389t127 412h278q-49 -152 -98 -286t-97 -255.5t-96.5 -233t-95.5 -220.5q-51 -115 -105 -200t-119 -140t-143.5 -82t-177.5 -27q-59 0 -123.5 12.5t-105.5 30.5l47 213q39 -16 82 -25t88 -9 q94 0 156.5 43t116.5 141q-86 139 -165 280.5t-146.5 275.5t-124 257t-101.5 225zM350 1607v178h621v-178h-621z" />
<glyph unicode="&#x4ef;" horiz-adv-x="1062" d="M-2 -344l45 199q74 -29 145 -29q96 0 150.5 46t95.5 142q-117 225 -224.5 491.5t-191.5 565.5h265q20 -86 49.5 -186.5t64.5 -203.5t74 -205.5t78 -190.5q66 182 123 388t104 398h256q-166 -610 -385 -1106q-41 -92 -84 -157.5t-96 -108.5t-118.5 -62.5t-151.5 -19.5 q-57 0 -113.5 12.5t-85.5 26.5zM233 1292v178h621v-178h-621z" />
<glyph unicode="&#x4f0;" horiz-adv-x="1261" d="M43 1419h289q33 -84 75 -180t90 -198.5t101 -209t107 -213.5q74 182 141 389t127 412h278q-49 -152 -98 -286t-97 -255.5t-96.5 -233t-95.5 -220.5q-51 -115 -105 -200t-119 -140t-143.5 -82t-177.5 -27q-59 0 -123.5 12.5t-105.5 30.5l47 213q39 -16 82 -25t88 -9 q94 0 156.5 43t116.5 141q-86 139 -165 280.5t-146.5 275.5t-124 257t-101.5 225zM316 1708q0 63 40.5 101.5t96.5 38.5q55 0 97 -38t42 -102q0 -63 -42 -100t-97 -37t-96 37t-41 100zM737 1708q0 63 42 101.5t98 38.5q55 0 96 -38t41 -102q0 -63 -41 -100t-96 -37t-97.5 37 t-42.5 100z" />
<glyph unicode="&#x4f1;" horiz-adv-x="1062" d="M-2 -344l45 199q74 -29 145 -29q96 0 150.5 46t95.5 142q-117 225 -224.5 491.5t-191.5 565.5h265q20 -86 49.5 -186.5t64.5 -203.5t74 -205.5t78 -190.5q66 182 123 388t104 398h256q-166 -610 -385 -1106q-41 -92 -84 -157.5t-96 -108.5t-118.5 -62.5t-151.5 -19.5 q-57 0 -113.5 12.5t-85.5 26.5zM187 1384q0 63 40.5 101.5t96.5 38.5q55 0 97 -38t42 -102q0 -63 -42 -100t-97 -37t-96 37t-41 100zM608 1384q0 63 42 101.5t98 38.5q55 0 96 -38t41 -102q0 -63 -41 -100t-96 -37t-97.5 37t-42.5 100z" />
<glyph unicode="&#x4f2;" horiz-adv-x="1261" d="M43 1419h289q33 -84 75 -180t90 -198.5t101 -209t107 -213.5q74 182 141 389t127 412h278q-49 -152 -98 -286t-97 -255.5t-96.5 -233t-95.5 -220.5q-51 -115 -105 -200t-119 -140t-143.5 -82t-177.5 -27q-59 0 -123.5 12.5t-105.5 30.5l47 213q39 -16 82 -25t88 -9 q94 0 156.5 43t116.5 141q-86 139 -165 280.5t-146.5 275.5t-124 257t-101.5 225zM355 1600l241 338l146 -129l-269 -299zM731 1600l240 338l147 -129l-270 -299z" />
<glyph unicode="&#x4f3;" horiz-adv-x="1062" d="M-2 -344l45 199q74 -29 145 -29q96 0 150.5 46t95.5 142q-117 225 -224.5 491.5t-191.5 565.5h265q20 -86 49.5 -186.5t64.5 -203.5t74 -205.5t78 -190.5q66 182 123 388t104 398h256q-166 -610 -385 -1106q-41 -92 -84 -157.5t-96 -108.5t-118.5 -62.5t-151.5 -19.5 q-57 0 -113.5 12.5t-85.5 26.5zM230 1274l241 338l146 -129l-269 -299zM606 1274l240 338l147 -129l-270 -299z" />
<glyph unicode="&#x4f4;" horiz-adv-x="1353" d="M113 997v422h258v-413q0 -170 73.5 -239t235.5 -69q66 0 132.5 8.5t113.5 16.5v696h258v-1419h-258v502q-53 -10 -127 -17.5t-150 -7.5q-143 0 -244.5 30t-166 93.5t-95 161.5t-30.5 235zM308 1708q0 63 40.5 101.5t96.5 38.5q55 0 97 -38t42 -102q0 -63 -42 -100 t-97 -37t-96 37t-41 100zM729 1708q0 63 42 101.5t98 38.5q55 0 96 -38t41 -102q0 -63 -41 -100t-96 -37t-97.5 37t-42.5 100z" />
<glyph unicode="&#x4f5;" horiz-adv-x="1126" d="M88 737v334h248v-332q0 -98 56.5 -138t154.5 -40q47 0 93 5t81 14v491h248v-1071h-248v383q-37 -6 -96.5 -15.5t-106.5 -9.5q-96 0 -175 18.5t-136 62.5t-88 117t-31 181zM181 1384q0 63 40.5 101.5t96.5 38.5q55 0 97 -38t42 -102q0 -63 -42 -100t-97 -37t-96 37 t-41 100zM602 1384q0 63 42 101.5t98 38.5q55 0 96 -38t41 -102q0 -63 -41 -100t-96 -37t-97.5 37t-42.5 100z" />
<glyph unicode="&#x4f6;" horiz-adv-x="1097" d="M170 0v1419h901v-221h-643v-979h217v-598h-248v379h-227z" />
<glyph unicode="&#x4f7;" horiz-adv-x="894" d="M158 0v1071h710v-205h-462v-663h172v-500h-222v297h-198z" />
<glyph unicode="&#x4f8;" horiz-adv-x="1824" d="M170 27v1392h258v-510q31 4 61.5 4h59.5q324 0 487.5 -115.5t163.5 -351.5q0 -115 -44 -200.5t-127 -144t-200.5 -88t-265.5 -29.5q-86 0 -190.5 10t-202.5 33zM428 209q29 -4 62.5 -4h91.5q70 0 134 11t111 39t76 74t29 117q0 72 -27.5 119t-79 76t-124 40t-164.5 11 h-52.5t-56.5 -4v-479zM570 1703q0 63 40.5 101.5t96.5 38.5q55 0 97 -38t42 -102q0 -63 -42 -100t-97 -37t-96 37t-41 100zM991 1703q0 63 42 101.5t98 38.5q55 0 96 -38t41 -102q0 -63 -41 -100t-96 -37t-97.5 37t-42.5 100zM1397 0v1419h258v-1419h-258z" />
<glyph unicode="&#x4f9;" horiz-adv-x="1619" d="M158 27v1044h248v-395q31 8 89 14t113 6q88 0 167 -20.5t137.5 -64.5t92 -112.5t33.5 -162.5q0 -96 -32.5 -164t-92 -111t-142.5 -63.5t-183 -20.5q-117 0 -220.5 12.5t-209.5 37.5zM406 182q27 -4 78 -7t98 -3q96 0 152.5 40t56.5 128q0 45 -18.5 75.5t-50.5 50t-72 28 t-83 8.5q-39 0 -85 -3t-76 -12v-305zM525 1384q0 63 40.5 101.5t96.5 38.5q55 0 97 -38t42 -102q0 -63 -42 -100t-97 -37t-96 37t-41 100zM946 1384q0 63 42 101.5t98 38.5q55 0 96 -38t41 -102q0 -63 -41 -100t-96 -37t-97.5 37t-42.5 100zM1214 0v1071h248v-1071h-248z " />
<glyph unicode="&#x1e80;" horiz-adv-x="1921" d="M51 1419h277q25 -139 52.5 -284.5t57 -285.5t60 -271.5t61.5 -241.5q39 104 79 220t79 235.5t74.5 238.5t66.5 230h221q33 -111 70 -231t77 -239.5t80 -235.5t76 -218q31 111 59.5 241t57.5 270t56.5 285.5t52.5 286.5h266q-72 -385 -160 -740t-196 -679h-246 q-160 414 -309 903q-76 -248 -154 -471t-156 -432h-245q-111 324 -198 679t-159 740zM676 1833l157 144l297 -359l-123 -110z" />
<glyph unicode="&#x1e81;" horiz-adv-x="1597" d="M31 1071h262q18 -86 42.5 -185.5t51.5 -202.5t55.5 -201.5t57.5 -180.5q31 94 60.5 194.5t56 201t50 195.5t42.5 179h190q18 -84 41 -179t48.5 -195.5t55 -201t60.5 -194.5q27 82 55.5 180.5t56 201.5t52 202.5t43.5 185.5h256q-43 -158 -88 -309.5t-90.5 -288.5 t-90.5 -258t-88 -215h-200q-53 152 -109.5 323t-103.5 351q-47 -180 -101.5 -351t-107.5 -323h-203q-41 94 -86 215t-90 258t-90 288.5t-88 309.5zM502 1511l157 144l297 -359l-123 -110z" />
<glyph unicode="&#x1e82;" horiz-adv-x="1921" d="M51 1419h277q25 -139 52.5 -284.5t57 -285.5t60 -271.5t61.5 -241.5q39 104 79 220t79 235.5t74.5 238.5t66.5 230h221q33 -111 70 -231t77 -239.5t80 -235.5t76 -218q31 111 59.5 241t57.5 270t56.5 285.5t52.5 286.5h266q-72 -385 -160 -740t-196 -679h-246 q-160 414 -309 903q-76 -248 -154 -471t-156 -432h-245q-111 324 -198 679t-159 740zM786 1618l302 359l155 -146l-334 -323z" />
<glyph unicode="&#x1e83;" horiz-adv-x="1597" d="M31 1071h262q18 -86 42.5 -185.5t51.5 -202.5t55.5 -201.5t57.5 -180.5q31 94 60.5 194.5t56 201t50 195.5t42.5 179h190q18 -84 41 -179t48.5 -195.5t55 -201t60.5 -194.5q27 82 55.5 180.5t56 201.5t52 202.5t43.5 185.5h256q-43 -158 -88 -309.5t-90.5 -288.5 t-90.5 -258t-88 -215h-200q-53 152 -109.5 323t-103.5 351q-47 -180 -101.5 -351t-107.5 -323h-203q-41 94 -86 215t-90 258t-90 288.5t-88 309.5zM643 1296l302 359l155 -146l-334 -323z" />
<glyph unicode="&#x1e84;" horiz-adv-x="1921" d="M51 1419h277q25 -139 52.5 -284.5t57 -285.5t60 -271.5t61.5 -241.5q39 104 79 220t79 235.5t74.5 238.5t66.5 230h221q33 -111 70 -231t77 -239.5t80 -235.5t76 -218q31 111 59.5 241t57.5 270t56.5 285.5t52.5 286.5h266q-72 -385 -160 -740t-196 -679h-246 q-160 414 -309 903q-76 -248 -154 -471t-156 -432h-245q-111 324 -198 679t-159 740zM613 1697q0 63 40.5 101.5t96.5 38.5q55 0 97 -38t42 -102q0 -63 -42 -100t-97 -37t-96 37t-41 100zM1034 1697q0 63 42 101.5t98 38.5q55 0 96 -38t41 -102q0 -63 -41 -100t-96 -37 t-97.5 37t-42.5 100z" />
<glyph unicode="&#x1e85;" horiz-adv-x="1597" d="M31 1071h262q18 -86 42.5 -185.5t51.5 -202.5t55.5 -201.5t57.5 -180.5q31 94 60.5 194.5t56 201t50 195.5t42.5 179h190q18 -84 41 -179t48.5 -195.5t55 -201t60.5 -194.5q27 82 55.5 180.5t56 201.5t52 202.5t43.5 185.5h256q-43 -158 -88 -309.5t-90.5 -288.5 t-90.5 -258t-88 -215h-200q-53 152 -109.5 323t-103.5 351q-47 -180 -101.5 -351t-107.5 -323h-203q-41 94 -86 215t-90 258t-90 288.5t-88 309.5zM443 1384q0 63 40.5 101.5t96.5 38.5q55 0 97 -38t42 -102q0 -63 -42 -100t-97 -37t-96 37t-41 100zM864 1384q0 63 42 101.5 t98 38.5q55 0 96 -38t41 -102q0 -63 -41 -100t-96 -37t-97.5 37t-42.5 100z" />
<glyph unicode="&#x1ef2;" horiz-adv-x="1280" d="M6 1419h303q72 -160 158 -317t180 -311q92 154 180 311.5t160 316.5h287q-115 -217 -239 -431t-265 -431v-557h-258v553q-141 219 -266 434t-240 432zM332 1843l157 144l297 -359l-123 -110z" />
<glyph unicode="&#x1ef3;" horiz-adv-x="1062" d="M-2 -344l45 199q74 -29 145 -29q96 0 150.5 46t95.5 142q-117 225 -224.5 491.5t-191.5 565.5h265q20 -86 49.5 -186.5t64.5 -203.5t74 -205.5t78 -190.5q66 182 123 388t104 398h256q-166 -610 -385 -1106q-41 -92 -84 -157.5t-96 -108.5t-118.5 -62.5t-151.5 -19.5 q-57 0 -113.5 12.5t-85.5 26.5zM234 1511l157 144l297 -359l-123 -110z" />
<glyph unicode="&#x2000;" horiz-adv-x="993" />
<glyph unicode="&#x2001;" horiz-adv-x="1987" />
<glyph unicode="&#x2002;" horiz-adv-x="993" />
<glyph unicode="&#x2003;" horiz-adv-x="1987" />
<glyph unicode="&#x2004;" horiz-adv-x="662" />
<glyph unicode="&#x2005;" horiz-adv-x="496" />
<glyph unicode="&#x2006;" horiz-adv-x="331" />
<glyph unicode="&#x2007;" horiz-adv-x="331" />
<glyph unicode="&#x2008;" horiz-adv-x="248" />
<glyph unicode="&#x2009;" horiz-adv-x="397" />
<glyph unicode="&#x200a;" horiz-adv-x="110" />
<glyph unicode="&#x2010;" horiz-adv-x="645" d="M47 471v227h551v-227h-551z" />
<glyph unicode="&#x2011;" horiz-adv-x="645" d="M47 471v227h551v-227h-551z" />
<glyph unicode="&#x2012;" horiz-adv-x="645" d="M47 471v227h551v-227h-551z" />
<glyph unicode="&#x2013;" horiz-adv-x="1024" d="M0 481v209h1024v-209h-1024z" />
<glyph unicode="&#x2014;" horiz-adv-x="2048" d="M0 481v209h2048v-209h-2048z" />
<glyph unicode="&#x2018;" horiz-adv-x="516" d="M117 1091.5v43.5q4 123 48 235.5t107 202.5l183 -49q-41 -90 -63.5 -190.5t-22.5 -190.5v-47t4 -58h-252q-4 27 -4 53.5z" />
<glyph unicode="&#x2019;" horiz-adv-x="516" d="M61 1067q41 90 63.5 190.5t22.5 192.5q0 14 -1 45t-5 57h254q2 -25 3 -51t-1 -43q-4 -123 -48 -236.5t-107 -201.5z" />
<glyph unicode="&#x201a;" horiz-adv-x="516" d="M61 -213q41 90 63.5 190.5t22.5 190.5q0 16 -1 47t-5 57h254q2 -18 2 -37.5v-35.5q0 -129 -45 -248t-110 -213z" />
<glyph unicode="&#x201c;" horiz-adv-x="927" d="M117 1091.5v43.5q4 123 48 235.5t107 202.5l183 -49q-41 -90 -63.5 -190.5t-22.5 -190.5v-47t4 -58h-252q-4 27 -4 53.5zM529 1091.5v43.5q4 123 48 235.5t107 202.5l183 -49q-41 -90 -63.5 -190.5t-22.5 -190.5v-47t4 -58h-252q-4 27 -4 53.5z" />
<glyph unicode="&#x201d;" horiz-adv-x="929" d="M61 1067q41 90 63.5 190.5t22.5 192.5q0 14 -1 45t-5 57h254q2 -25 3 -51t-1 -43q-4 -123 -48 -236.5t-107 -201.5zM475 1067q41 90 63.5 190.5t22.5 192.5q0 14 -1 45t-5 57h254q2 -25 3 -51t-1 -43q-4 -123 -48 -236.5t-107 -201.5z" />
<glyph unicode="&#x201e;" horiz-adv-x="923" d="M61 -213q41 90 63.5 190.5t22.5 190.5q0 16 -1 47t-5 57h254q2 -18 2 -37.5v-35.5q0 -129 -45 -248t-110 -213zM469 -213q41 90 63.5 190.5t22.5 190.5q0 16 -1 47t-5 57h254q2 -18 2 -37.5v-35.5q0 -129 -45 -248t-110 -213z" />
<glyph unicode="&#x2020;" horiz-adv-x="989" d="M74 793v196h315v430h209v-430h317v-196h-317v-494q0 -170 -9 -310.5t-30 -285.5h-131q-20 145 -29.5 285.5t-9.5 310.5v494h-315z" />
<glyph unicode="&#x2021;" horiz-adv-x="989" d="M74 250v196h315v347h-315v196h315v430h209v-430h317v-196h-317v-347h317v-196h-317q-2 -154 -11 -283t-28 -264h-131q-18 135 -27.5 264t-11.5 283h-315z" />
<glyph unicode="&#x2022;" horiz-adv-x="757" d="M100 723q0 55 19.5 105.5t55.5 87t87 59t117 22.5q63 0 114.5 -22.5t88 -59t56 -87t19.5 -105.5t-19.5 -105.5t-56 -88t-88 -60.5t-114.5 -23q-66 0 -117 23t-87 60.5t-55.5 88t-19.5 105.5z" />
<glyph unicode="&#x2026;" horiz-adv-x="2048" d="M248 135q0 72 47 118t116 46q68 0 116 -46t48 -118t-48 -117t-116 -45q-70 0 -116.5 45t-46.5 117zM861 135q0 72 47 118t116 46q68 0 116 -46t48 -118t-48 -117t-116 -45q-70 0 -116.5 45t-46.5 117zM1471 135q0 72 47 118t116 46q68 0 116 -46t48 -118t-48 -117 t-116 -45q-70 0 -116.5 45t-46.5 117z" />
<glyph unicode="&#x202f;" horiz-adv-x="397" />
<glyph unicode="&#x2039;" horiz-adv-x="641" d="M55 582l328 471l182 -90l-217 -381l217 -383l-182 -90z" />
<glyph unicode="&#x203a;" horiz-adv-x="641" d="M76 199l217 383l-217 381l182 90l328 -471l-328 -473z" />
<glyph unicode="&#x205f;" horiz-adv-x="496" />
<glyph unicode="&#x20ac;" d="M78 455v176h149q-2 23 -2 41v39v45t2 45h-149v174h172q51 236 195.5 353.5t369.5 117.5q90 0 152.5 -12.5t126.5 -34.5l-54 -201q-49 18 -103 29.5t-124 11.5q-139 0 -214 -70.5t-103 -193.5h465l-33 -174h-457q-2 -25 -2 -46.5v-43.5v-39t2 -41h424l-35 -176h-366 q33 -152 113.5 -212.5t201.5 -60.5q78 0 143.5 14.5t124.5 41.5l51 -199q-47 -23 -133 -44.5t-196 -21.5q-248 0 -381 127t-174 355h-166z" />
<glyph unicode="&#x2116;" horiz-adv-x="2355" d="M170 0v1419h211q74 -86 162 -203.5t178 -244.5t176 -255t156 -239v942h256v-1419h-219q-70 117 -153 251t-170 270t-175 264t-168 231v-1016h-254zM1479 1049q0 92 28.5 166.5t79.5 127t122 80t155 27.5t154.5 -27.5t120.5 -80t79 -127t29 -166.5t-29 -166t-79 -126 t-120.5 -80t-154.5 -28t-155 28t-122 80t-79.5 125.5t-28.5 166.5zM1516 295v180h696v-180h-696zM1671 1049q0 -104 50.5 -167t142.5 -63t141 63t49 167q0 106 -49 168.5t-141 62.5t-142.5 -62.5t-50.5 -168.5z" />
<glyph unicode="&#x2122;" horiz-adv-x="1703" d="M41 1251v168h616v-168h-213v-534h-190v534h-213zM707 717q20 260 33.5 427t29.5 275h191q37 -74 90 -178t106 -215q55 111 110.5 215.5t90.5 177.5h194q18 -109 29.5 -275.5t28.5 -426.5h-180q-4 109 -10.5 233.5t-14.5 229.5q-25 -41 -53.5 -94.5t-55 -105.5t-49 -98 t-35.5 -73h-106q-12 27 -34.5 72t-50.5 97t-56.5 105.5t-51.5 96.5q-8 -104 -14 -229.5t-10 -233.5h-182z" />
<glyph unicode="&#x25ca;" horiz-adv-x="1128" d="M55 711q72 113 138.5 211t129 189t122 176t120.5 169q61 -84 120.5 -169t122 -176t128 -189.5t137.5 -210.5q-72 -113 -137.5 -212.5t-128 -190.5t-122.5 -175l-120 -168q-59 84 -119.5 168t-123 175t-129 190.5t-138.5 212.5zM307 711q70 -117 131.5 -207t126.5 -178 q66 88 126 178t130 207q-70 115 -130 205t-126 180q-66 -90 -127 -180.5t-131 -204.5z" />
<glyph unicode="&#x25fc;" horiz-adv-x="1075" d="M0 0v1075h1075v-1075h-1075z" />
</font>
</defs>
</svg>
